<?xml version="1.0" standalone="no"?>
<!DOCTYPE svg PUBLIC "-//W3C//DTD SVG 1.1//EN" "http://www.w3.org/Graphics/SVG/1.1/DTD/svg11.dtd" >
<svg xmlns="http://www.w3.org/2000/svg">
<metadata>Generated by IcoMoon</metadata>
<defs>
<font id="metro" horiz-adv-x="1024">
<font-face units-per-em="1024" ascent="960" descent="-64" />
<missing-glyph horiz-adv-x="1024" />
<glyph unicode="&#x20;" horiz-adv-x="512" d="" />
<glyph unicode="&#xe01d;" glyph-name="equalizer2" d="M682 554.667h172v-470h-172v470zM170 84.667v342h172v-342h-172zM426 84.667v684h172v-684h-172z" />
<glyph unicode="&#xe042;" glyph-name="replay" d="M512 724.667c188 0 342-152 342-340s-154-342-342-342-342 154-342 342h86c0-142 114-256 256-256s256 114 256 256-114 256-256 256v-172l-214 214 214 214v-172z" />
<glyph unicode="&#xe06d;" glyph-name="featured-play-list" d="M512 640.667v84h-384v-84h384zM512 468.667v86h-384v-86h384zM896 810.667c46 0 86-40 86-86v-596c0-46-40-86-86-86h-768c-46 0-86 40-86 86v596c0 46 40 86 86 86h768z" />
<glyph unicode="&#xe06e;" glyph-name="featured-video" d="M512 426.667v298h-384v-298h384zM896 810.667c46 0 86-40 86-86v-596c0-46-40-86-86-86h-768c-46 0-86 40-86 86v596c0 46 40 86 86 86h768z" />
<glyph unicode="&#xe06f;" glyph-name="note" d="M640 704.667v-236h234zM938 512.667v-342c0-46-38-84-84-84l-684-2c-46 0-84 40-84 86v512c0 46 38 86 84 86h512z" />
<glyph unicode="&#xe0b7;" glyph-name="chat" d="M768 596.667v86h-512v-86h512zM598 340.667v86h-342v-86h342zM256 554.667v-86h512v86h-512zM854 852.667c46 0 84-38 84-84v-512c0-46-38-86-84-86h-598l-170-170v768c0 46 38 84 84 84h684z" />
<glyph unicode="&#xe0b9;" glyph-name="comment" d="M768 596.667v86h-512v-86h512zM768 468.667v86h-512v-86h512zM768 340.667v86h-512v-86h512zM938 768.667v-768l-170 170h-598c-46 0-84 40-84 86v512c0 46 38 84 84 84h684c46 0 84-38 84-84z" />
<glyph unicode="&#xe0c3;" glyph-name="import-export" d="M682 212.667h128l-170-170-170 170h128v300h84v-300zM384 810.667l170-170h-128v-300h-84v300h-128z" />
<glyph unicode="&#xe0c7;" glyph-name="location-off" d="M500 448.667c118.353-116.98 236.568-234.098 354-352l-54-54-144 142c-72-106-144-184-144-184s-298 330-298 554c0 22 4 44 8 66l-136 136 54 54 356-356zM512 660.667c-32 0-58-14-78-36l-138 136c54 56 132 92 216 92 166 0 298-132 298-298 0-72-30-154-72-234l-154 156c22 20 34 46 34 78 0 58-48 106-106 106z" />
<glyph unicode="&#xe0ca;" glyph-name="chat-bubble" d="M854 852.667c46 0 84-38 84-84v-512c0-46-38-86-84-86h-598l-170-170v768c0 46 38 84 84 84h684z" />
<glyph unicode="&#xe0cb;" glyph-name="chat-bubble-outline" d="M854 256.667v512h-684v-598l86 86h598zM854 852.667c46 0 84-38 84-84v-512c0-46-38-86-84-86h-598l-170-170v768c0 46 38 84 84 84h684z" />
<glyph unicode="&#xe0db;" glyph-name="phonelink-erase" d="M810 896.667c46 0 86-40 86-86v-768c0-46-40-86-86-86h-426c-46 0-86 40-86 86v128h86v-86h426v684h-426v-86h-86v128c0 46 40 86 86 86h426zM554 588.667l-170-170 170-172-42-42-170 170-172-170-42 42 170 172-170 170 42 42 172-170 170 170z" />
<glyph unicode="&#xe0dc;" glyph-name="phonelink-lock" d="M406 468.667v64c0 34-30 56-64 56s-64-22-64-56v-64h128zM460 468.667c26 0 52-24 52-54v-150c0-26-26-52-56-52h-234c-26 0-52 26-52 56v150c0 26 26 50 52 50v64c0 60 60 108 120 108s118-48 118-108v-64zM810 896.667c46 0 86-40 86-86v-768c0-46-40-86-86-86h-426c-46 0-86 40-86 86v128h86v-86h426v684h-426v-86h-86v128c0 46 40 86 86 86h426z" />
<glyph unicode="&#xe0dd;" glyph-name="phonelink-ring" d="M598 84.667v684h-428v-684h428zM598 896.667c46 0 84-40 84-86v-768c0-46-38-86-84-86h-428c-46 0-84 40-84 86v768c0 46 38 86 84 86h428zM768 520.667c52-56 52-132 0-184l-42 44c22 30 22 68 0 98zM858 610.667c106-102 106-266 0-364l-44 44c76 82 76 200 0 276z" />
<glyph unicode="&#xe0de;" glyph-name="phonelink-setup" d="M810 896.667c46 0 86-40 86-86v-768c0-46-40-86-86-86h-426c-46 0-86 40-86 86v128h86v-86h426v684h-426v-86h-86v128c0 46 40 86 86 86h426zM342 340.667c46 0 84 40 84 86s-38 86-84 86-86-40-86-86 40-86 86-86zM504 404.667l46-38c4-4 8-8 4-12l-42-74c-4-4-8-4-12-4l-56 22c-12-8-26-18-38-22l-10-54c-4-4-8-10-12-10h-86c-4 0-12 6-8 10l-8 54c-12 4-26 14-38 22l-60-18c-4-4-10 2-14 6l-42 72c0 4 0 8 4 16l48 34v44l-48 34c-4 4-8 8-4 12l42 74c4 4 10 4 14 4l54-22c12 8 28 18 40 22l8 54c4 4 8 10 12 10h86c8 0 12-6 12-10l10-54c12-4 26-14 38-22l56 18c4 4 8-2 12-6l42-72c0-4 0-8-4-12l-46-34v-44z" />
<glyph unicode="&#xe0df;" glyph-name="present-all" d="M426 426.667h-84l170 170 170-170h-84v-170h-172v170zM896 126.667v600h-768v-600h768zM896 810.667c48 0 86-38 86-86v-596c0-48-38-86-86-86h-768c-48 0-86 38-86 86v596c0 48 38 86 86 86h768z" />
<glyph unicode="&#xe0e0;" glyph-name="import-contacts" d="M896 148.667v492c-46 14-98 20-150 20-72 0-176-28-234-64v-490c58 36 162 64 234 64 52 0 104-8 150-22zM746 746.667c88.409 0 181.498-22.075 236-64v-622c0-10-12-22-22-22-4 0-6 0-10 2-60 32-134 44-204 44-72 0-176-28-234-64-62 46-150 64-234 64-62 0-146-18-204-46-4 0-6-2-10-2-10 0-22 10-22 20v626c62 46 152 64 236 64s172-18 234-64c62 46 150 64 234 64z" />
<glyph unicode="&#xe145;" glyph-name="add" d="M810 384.667h-256v-256h-84v256h-256v84h256v256h84v-256h256v-84z" />
<glyph unicode="&#xe14a;" glyph-name="backspace1" d="M810 272.667l-152 154 152 154-60 60-152-154-154 154-60-60 154-154-154-154 60-60 154 154 152-154zM938 810.667c46 0 86-40 86-86v-596c0-46-40-86-86-86h-640c-30 0-52 16-68 38l-230 346 230 346c16 22 38 38 68 38h640z" />
<glyph unicode="&#xe156;" glyph-name="inbox" d="M810 298.667v426h-598v-426h172c0-70 58-128 128-128s128 58 128 128h170zM810 810.667c46 0 86-38 86-86v-596c0-46-40-86-86-86h-598c-48 0-84 40-84 86v596c0 48 36 86 84 86h598z" />
<glyph unicode="&#xe15e;" glyph-name="reply" d="M426 554.667c298-42 428-256 470-470-106 150-256 218-470 218v-174l-298 298 298 298v-170z" />
<glyph unicode="&#xe15f;" glyph-name="reply_all" d="M554 554.667c298-42 428-256 470-470-106 150-256 218-470 218v-174l-298 298 298 298v-170zM298 596.667l-170-170 170-170v-128l-298 298 298 298v-128z" />
<glyph unicode="&#xe168;" glyph-name="move_to_inbox" d="M682 512.667l-170-172-170 172h84v128h172v-128h84zM810 298.667v426h-598v-426h172c0-70 58-128 128-128s128 58 128 128h170zM810 810.667c46 0 86-40 86-86v-596c0-46-40-86-86-86h-598c-48 0-84 40-84 86v596c0 46 36 86 84 86h598z" />
<glyph unicode="&#xe1b9;" glyph-name="network-cell" d="M938 0.667h-852l852 852v-852z" />
<glyph unicode="&#xe1ba;" glyph-name="network-wifi" d="M872.5 471.839c0.568-0.445 1.068-0.837 1.5-1.172l-362-448-362 448c0.431 0.335 0.931 0.727 1.5 1.172l-135.5 168.828c20 14 210 170 496 170s476-156 496-170z" />
<glyph unicode="&#xe1c0;" glyph-name="lock-rotation" d="M716 832.667v-22h146v22c0 40-32 72-72 72s-74-32-74-72zM682 554.667c-24 0-42 18-42 42v172c0 24 18 42 42 42v22c0 58 50 106 108 106s106-48 106-106v-22c24 0 42-18 42-42v-172c0-24-18-42-42-42h-214zM362 64.667l56 56 162-162-28-2c-268 0-488 208-510 470h64c16-160 116-296 256-362zM992 394.667c26-24 26-66 0-92l-272-270c-24-26-64-26-90 0l-512 512c-26 24-26 64 0 90l270 272c24 26 66 26 92 0l104-104-60-60-90 88-242-240 484-484 240 242-94 94 60 60z" />
<glyph unicode="&#xe1c1;" glyph-name="rotation" d="M320 22.667l58 56 162-162-28-2c-268 0-488 208-510 470h64c16-160 114-296 254-362zM632 34.667l272 272-512 512-272-272zM436 864.667l514-514c26-24 26-64 0-90l-272-272c-24-26-64-26-90 0l-514 514c-26 24-26 64 0 90l272 272c24 26 64 26 90 0zM704 830.667l-58-56-162 162 28 2c268 0 488-208 510-470h-64c-16 160-114 296-254 362z" />
<glyph unicode="&#xe1c8;" glyph-name="cell-on" d="M86 0.667l852 852v-852h-852z" />
<glyph unicode="&#xe1cd;" glyph-name="cell-no-internet" d="M86 0.667l852 852v-256h-170v-596h-682zM854 0.667v84h84v-84h-84zM854 170.667v342h84v-342h-84z" />
<glyph unicode="&#xe1cf;" glyph-name="cell-null" d="M938 852.667v-852h-852zM854 646.667l-562-562h562v562z" />
<glyph unicode="&#xe1d0;" glyph-name="cell-off" d="M204 746.667l734-736-54-54-84 86h-758l378 378-270 272zM896 896.667v-734l-366 366z" />
<glyph unicode="&#xe1d9;" glyph-name="wifi-lock" d="M662 320.667v-112l-150-188-494 620c18 12 208 170 494 170s476-158 494-170l-88-112c-12 4-26 4-44 4-120 0-212-92-212-212zM938 256.667v64c0 34-30 64-64 64s-64-30-64-64v-64h128zM982 256.667c22 0 42-22 42-44v-170c0-22-20-42-42-42h-214c-22 0-42 20-42 42v170c0 22 20 44 42 44v64c0 60 46 106 106 106s108-46 108-106v-64z" />
<glyph unicode="&#xe1da;" glyph-name="wifi-off" d="M140 876.667c244.604-245.396 490.948-489.052 734-736l-54-54-142 142-166-206-496 618c10 8 64 52 156 94l-86 88zM1008 640.667l-232-290-442 440c54 12 114 20 178 20 286 0 476-156 496-170z" />
<glyph unicode="&#xe24d;" glyph-name="insert-drive-file" d="M554 554.667h236l-236 234v-234zM256 852.667h342l256-256v-512c0-46-40-84-86-84h-512c-46 0-86 38-86 84l2 684c0 46 38 84 84 84z" />
<glyph unicode="&#xe2c7;" glyph-name="folder2" d="M426 768.667l86-86h342c46 0 84-40 84-86v-426c0-46-38-86-84-86h-684c-46 0-84 40-84 86v512c0 46 38 86 84 86h256z" />
<glyph unicode="&#xe2c8;" glyph-name="folder-open2" d="M854 170.667v426h-684v-426h684zM854 682.667c46 0 84-40 84-86v-426c0-46-38-86-84-86h-684c-46 0-84 40-84 86v512c0 46 38 86 84 86h256l86-86h342z" />
<glyph unicode="&#xe2c9;" glyph-name="folder-shared" d="M810 212.667v44c0 56-114 84-170 84s-170-28-170-84v-44h340zM640 554.667c-46 0-86-40-86-86s40-84 86-84 86 38 86 84-40 86-86 86zM854 682.667c46 0 84-40 84-86v-426c0-46-38-86-84-86h-684c-46 0-84 40-84 86v512c0 46 38 86 84 86h256l86-86h342z" />
<glyph unicode="&#xe2cc;" glyph-name="create-new-folder" d="M810 340.667v86h-128v128h-84v-128h-128v-86h128v-128h84v128h128zM854 682.667c48 0 84-38 84-86v-426c0-48-36-86-84-86h-684c-48 0-84 38-84 86v512c0 48 36 86 84 86h256l86-86h342z" />
<glyph unicode="&#xe307;" glyph-name="cast" d="M42 512.667c258 0 470-210 470-470h-86c0 212-172 384-384 384v86zM42 340.667c166 0 300-132 300-298h-86c0 118-96 214-214 214v84zM42 170.667c70 0 128-58 128-128h-128v128zM896 810.667c46 0 86-40 86-86v-596c0-46-40-86-86-86h-298v86h298v596h-768v-128h-86v128c0 46 40 86 86 86h768z" />
<glyph unicode="&#xe308;" glyph-name="cast-connected" d="M896 810.667c46 0 86-40 86-86v-596c0-46-40-86-86-86h-298v86h298v596h-768v-128h-86v128c0 46 40 86 86 86h768zM42 512.667c258 0 470-210 470-470h-86c0 212-172 384-384 384v86zM810 640.667v-428h-240c-54 168-188 304-356 358v70h596zM42 340.667c166 0 300-132 300-298h-86c0 118-96 214-214 214v84zM42 170.667c70 0 128-58 128-128h-128v128z" />
<glyph unicode="&#xe30d;" glyph-name="developer_board" d="M512 468.667h170v-256h-170v256zM256 640.667h214v-214h-214v214zM512 640.667h170v-128h-170v128zM256 384.667h214v-172h-214v172zM768 128.667v596h-598v-596h598zM938 554.667h-84v-86h84v-84h-84v-86h84v-86h-84v-84c0-46-40-86-86-86h-598c-46 0-84 40-84 86v596c0 46 38 86 84 86h598c46 0 86-40 86-86v-84h84v-86z" />
<glyph unicode="&#xe317;" glyph-name="backspace" d="M896 468.667v-84h-604l152-154-60-60-256 256 256 256 60-60-152-154h604z" />
<glyph unicode="&#xe31a;" glyph-name="keyboard-hide" d="M512-43.333l-170 172h340zM810 596.667v86h-84v-86h84zM810 468.667v86h-84v-86h84zM682 596.667v86h-84v-86h84zM682 468.667v86h-84v-86h84zM682 298.667v86h-340v-86h340zM298 596.667v86h-84v-86h84zM298 468.667v86h-84v-86h84zM342 554.667v-86h84v86h-84zM342 682.667v-86h84v86h-84zM470 554.667v-86h84v86h-84zM470 682.667v-86h84v86h-84zM854 810.667c46 0 84-40 84-86v-426c0-46-38-86-84-86h-684c-46 0-84 40-84 86v426c0 46 38 86 84 86h684z" />
<glyph unicode="&#xe31c;" glyph-name="keyboard-tab" d="M854 682.667h84v-512h-84v512zM494 622.667l60 60 256-256-256-256-60 60 154 154h-606v84h606z" />
<glyph unicode="&#xe334;" glyph-name="watch" d="M256 426.667c0-142 114-256 256-256s256 114 256 256-114 256-256 256-256-114-256-256zM854 426.667c0-108-52-206-130-268l-42-244h-340l-42 244c-80 62-130 160-130 268s50 206 130 268l42 244h340l42-244c78-62 130-160 130-268z" />
<glyph unicode="&#xe337;" glyph-name="devices" d="M896 170.667v342h-170v-342h170zM938 596.667c22 0 44-20 44-42v-426c0-22-22-44-44-44h-256c-22 0-42 22-42 44v426c0 22 20 42 42 42h256zM470 192.667c36 0 64 28 64 64s-28 64-64 64-64-28-64-64 28-64 64-64zM554 426.667v-76c26-24 44-56 44-94s-18-72-44-96v-76h-170v76c-26 24-42 58-42 96s16 70 42 94v76h170zM128 682.667v-512h170v-86h-170c-46 0-86 40-86 86v512c0 46 40 86 86 86h768v-86h-768z" />
<glyph unicode="&#xe3b1;" glyph-name="camera-front" d="M298 852.667v-448c0 72 142 108 214 108s214-36 214-108v448h-428zM726 938.667c46 0 84-40 84-86v-596c0-46-38-86-84-86h-300l128-128-128-128v86h-212v84h212v86h-128c-46 0-84 40-84 86v596c0 46 38 86 84 86h428zM512 596.667c-46 0-84 40-84 86s38 86 84 86 86-40 86-86-40-86-86-86zM598 84.667h212v-84h-212v84z" />
<glyph unicode="&#xe3b2;" glyph-name="camera-rear" d="M512 682.667c46 0 84 40 84 86s-38 84-84 84-86-38-86-84 38-86 86-86zM726 938.667c46 0 84-40 84-86v-596c0-46-38-86-84-86h-300l128-128-128-128v86h-212v84h212v86h-128c-46 0-84 40-84 86v596c0 46 38 86 84 86h428zM598 84.667h212v-84h-212v84z" />
<glyph unicode="&#xe3e5;" glyph-name="flash-auto" d="M718 612.667h100l-50 156zM810 852.667l138-384h-82l-30 86h-136l-30-86h-82l138 384h84zM128 852.667h426l-170-384h170l-298-512v384h-128v512z" />
<glyph unicode="&#xe3e6;" glyph-name="flash-off" d="M726 512.667l-66-114-362 362v92h428l-172-340h172zM140 810.667l670-672-54-54-176 178-154-262v384h-128v158l-212 214z" />
<glyph unicode="&#xe3e7;" glyph-name="flash-on" d="M298 852.667h428l-172-340h172l-300-512v384h-128v468z" />
<glyph unicode="&#xe3ed;" glyph-name="hdr-off" d="M106 832.667c270.848-271.818 543.632-541.7 816-812l-48-46-324 324h-144v146l-64 64v-210h-64v106h-86v-106h-64v256h64v-86h86v86h16l-234 234zM554 490.667h-16l-64 64h80c34 0 64-30 64-64v-82l-64 64v18zM746 490.667v-42h86v42h-86zM746 298.667h-16l-48 46v210h150c34 0 64-30 64-64v-42c0-26-16-52-38-60l38-90h-64l-38 86h-48v-86z" />
<glyph unicode="&#xe3ee;" glyph-name="hdr-on" d="M554 362.667v128h-84v-128h84zM554 554.667c34 0 64-30 64-64v-128c0-34-30-64-64-64h-148v256h148zM278 468.667v86h64v-256h-64v106h-86v-106h-64v256h64v-86h86zM832 448.667v42h-86v-42h86zM896 448.667c0-26-16-48-38-60l38-90h-64l-38 86h-48v-86h-64v256h150c34 0 64-30 64-64v-42z" />
<glyph unicode="&#xe412;" glyph-name="photo-camera" d="M512 212.667c118 0 214 96 214 214s-96 214-214 214-214-96-214-214 96-214 214-214zM384 852.667h256l78-84h136c46 0 84-40 84-86v-512c0-46-38-86-84-86h-684c-46 0-84 40-84 86v512c0 46 38 86 84 86h136zM376 426.667c0 76 60 136 136 136s136-60 136-136-60-136-136-136-136 60-136 136z" />
<glyph unicode="&#xe439;" glyph-name="add-photo" d="M418 340.667c0 76 60 138 136 138s138-62 138-138-62-136-138-136-136 60-136 136zM554 128.667c118 0 214 94 214 212s-96 214-214 214-212-96-212-214 94-212 212-212zM256 512.667v128h128v128h298l78-86h136c46 0 86-40 86-86v-512c0-46-40-84-86-84h-682c-46 0-86 38-86 84v428h128zM128 768.667v128h86v-128h128v-86h-128v-128h-86v128h-128v86h128z" />
<glyph unicode="&#xe52d;" glyph-name="beenhere" d="M426 256.667l384 384-60 60-324-324-152 152-60-60zM810 896.667c46 0 86-40 86-86v-552c0-30-16-54-38-70l-346-232-346 232c-22 16-38 40-38 70v552c0 46 40 86 86 86h596z" />
<glyph unicode="&#xe55d;" glyph-name="navigation" d="M512 852.667l320-780-30-30-290 128-290-128-30 30z" />
<glyph unicode="&#xe561;" glyph-name="restaurant" d="M634 446.667l-62-62 294-294-60-60-294 294-294-294-60 60 416 416c-30 66-8 158 60 226 82 82 198 96 260 34s48-180-34-262c-68-68-160-88-226-58zM346 368.667l-180 180c-66 66-66 174 0 240l300-298z" />
<glyph unicode="&#xe569;" glyph-name="near-me" d="M896 810.667l-322-768h-42l-112 292-292 112v42z" />
<glyph unicode="&#xe56d;" glyph-name="ev-station" d="M342 170.667l170 298h-86v214l-170-320h86v-192zM768 512.667c24 0 42 18 42 42s-18 42-42 42-42-18-42-42 18-42 42-42zM844 630.667c20-20 30-46 30-76v-406c0-58-48-106-106-106s-106 48-106 106v214h-64v-320h-428v682c0 46 40 86 86 86h256c46 0 86-40 86-86v-298h42c46 0 86-40 86-86v-192c0-24 18-42 42-42s42 18 42 42v308c-14-6-26-8-42-8-58 0-106 48-106 106 0 46 28 84 68 100l-90 90 46 44z" />
<glyph unicode="&#xe5c5;" glyph-name="arrow-drop-down" d="M298 512.667h428l-214-214z" />
<glyph unicode="&#xe5c7;" glyph-name="arrow-drop-up" d="M298 340.667l214 214 214-214h-428z" />
<glyph unicode="&#xe5d5;" glyph-name="refresh" d="M754 668.667l100 100v-300h-300l138 138c-46 46-110 76-180 76-142 0-256-114-256-256s114-256 256-256c112 0 208 70 242 170h88c-38-148-170-256-330-256-188 0-340 154-340 342s152 342 340 342c94 0 180-38 242-100z" />
<glyph unicode="&#xe600;" glyph-name="3d-rotation" d="M320.64 21.974c-139.307 66.133-239.36 201.6-254.507 362.027h-64c21.76-262.827 241.493-469.333 509.867-469.333 9.6 0 18.773 0.853 28.16 1.493l-162.56 162.773-56.96-56.96zM358.613 300.374c-8.107 0-15.573 1.067-22.4 3.627-6.613 2.347-12.373 5.76-17.067 10.027s-8.32 9.6-10.88 15.573c-2.56 6.187-3.84 12.8-3.84 20.053h-55.467c0-15.36 2.987-28.8 8.96-40.533s13.867-21.547 23.893-29.227c10.027-7.893 21.547-13.653 34.773-17.707 13.227-4.267 26.88-6.187 41.387-6.187 15.787 0 30.507 2.133 44.16 6.4s25.387 10.667 35.413 18.987 17.707 18.56 23.467 30.72c5.547 12.16 8.533 26.027 8.533 41.6 0 8.32-1.067 16.213-2.987 23.893-2.133 7.68-5.333 14.933-9.6 21.76-4.48 6.827-10.24 12.8-17.28 18.347-7.040 5.333-15.787 9.813-25.813 13.44 8.533 3.84 16 8.533 22.4 14.080s11.733 11.52 16 17.707c4.267 6.4 7.467 12.8 9.6 19.627s3.2 13.653 3.2 20.267c0 15.573-2.56 29.227-7.68 40.96s-12.373 21.547-21.76 29.44c-9.387 7.893-20.48 13.867-33.707 17.92-13.653 4.267-28.16 6.187-43.947 6.187-15.36 0-29.653-2.347-42.667-6.827s-24.107-10.88-33.493-18.987c-9.387-8.107-16.64-17.707-21.973-28.8s-7.893-23.253-7.893-36.267h55.467c0 7.253 1.28 13.653 3.84 19.2 2.56 5.76 6.187 10.667 10.667 14.507 4.48 4.053 10.027 7.253 16.213 9.387s13.013 3.413 20.267 3.413c17.067 0 29.653-4.48 37.973-13.227s12.373-21.12 12.373-36.907c0-7.68-1.067-14.507-3.413-20.693s-5.76-11.52-10.453-16c-4.693-4.48-10.667-7.893-17.493-10.453-7.040-2.56-15.36-3.84-24.747-3.84h-32.853v-43.733h32.853c9.387 0 17.92-1.067 25.387-3.2s13.867-5.333 19.2-10.027c5.333-4.48 9.387-10.24 12.373-17.067 2.773-6.827 4.267-14.933 4.267-24.32 0-17.28-4.907-30.507-14.933-39.68-9.6-8.96-23.040-13.44-40.32-13.44zM723.84 553.174c-13.44 14.080-29.653 24.96-48.427 32.64-18.987 7.68-39.68 11.52-62.507 11.52h-100.907v-341.333h97.92c23.68 0 45.013 3.84 64.427 11.52s35.84 18.56 49.493 32.64c13.653 14.080 24.32 31.147 31.573 50.987 7.467 19.84 11.093 42.24 11.093 66.987v16.853c0 24.747-3.84 46.933-11.307 66.987s-17.92 37.12-31.36 51.2zM706.987 417.92c0-17.707-1.92-33.92-6.187-48-4.053-14.293-10.027-26.24-18.133-36.053s-18.133-17.28-30.293-22.613c-12.16-5.12-26.24-7.893-42.453-7.893h-38.613v246.187h41.6c30.72 0 53.973-9.813 70.187-29.227 16-19.627 24.107-47.787 24.107-84.907v-17.493zM512 938.667c-9.6 0-18.773-0.853-28.16-1.493l162.56-162.773 56.747 56.747c139.52-65.92 239.573-201.387 254.72-361.813h64c-21.76 262.827-241.493 469.333-509.867 469.333z" />
<glyph unicode="&#xe601;" glyph-name="alarm" d="M938.667 694.614l-196.053 164.48-54.827-65.28 196.053-164.48 54.827 65.28zM336.213 794.027l-54.827 65.28-196.053-164.48 54.827-65.28 196.053 164.48zM533.333 597.334h-64v-256l202.453-121.813 32.213 52.693-170.667 101.12v224zM511.787 768c-212.267 0-383.787-171.947-383.787-384s171.52-384 383.787-384 384.213 171.947 384.213 384-171.947 384-384.213 384zM512 85.334c-164.907 0-298.667 133.76-298.667 298.667s133.76 298.667 298.667 298.667 298.667-133.76 298.667-298.667-133.547-298.667-298.667-298.667z" />
<glyph unicode="&#xe602;" glyph-name="alarm-on" d="M938.667 694.614l-196.053 164.48-54.827-65.28 196.053-164.48 54.827 65.28zM336.213 794.027l-54.827 65.28-196.053-164.48 54.827-65.28 196.053 164.48zM511.787 768c-212.267 0-383.787-171.947-383.787-384s171.52-384 383.787-384 384.213 171.947 384.213 384-171.947 384-384.213 384zM512 85.334c-164.907 0-298.667 133.76-298.667 298.667s133.76 298.667 298.667 298.667 298.667-133.76 298.667-298.667-133.547-298.667-298.667-298.667zM449.493 318.934l-90.453 90.453-45.227-45.227 135.68-135.68 256.213 256.213-45.227 45.227-210.987-210.987z" />
<glyph unicode="&#xe603;" glyph-name="favorite" d="M512 27.734l-61.867 56.107c-219.733 199.467-364.8 331.093-364.8 492.16 0 131.627 103.040 234.667 234.667 234.667 74.24 0 145.493-34.56 192-88.96 46.507 54.4 117.76 88.96 192 88.96 131.627 0 234.667-103.040 234.667-234.667 0-161.067-145.067-292.693-364.8-492.16l-61.867-56.107z" />
<glyph unicode="&#xe604;" glyph-name="perm-phone-msg" d="M853.333 277.334c-53.12 0-104.533 8.533-152.32 24.32-14.72 4.693-31.573 1.28-43.307-10.453l-93.867-94.080c-120.96 61.44-219.52 160.213-281.173 280.96l93.867 94.293c11.733 11.733 15.147 28.587 10.453 43.307-15.787 47.787-24.32 99.2-24.32 152.32 0 23.68-18.987 42.667-42.667 42.667h-149.333c-23.467 0-42.667-18.987-42.667-42.667 0-400.64 324.693-725.333 725.333-725.333 23.68 0 42.667 18.987 42.667 42.667v149.333c0 23.68-18.987 42.667-42.667 42.667zM512 810.667v-426.667l128 128h256v298.667h-384z" />
<glyph unicode="&#xe605;" glyph-name="print" d="M810.667 597.334h-597.333c-70.613 0-128-57.387-128-128v-256h170.667v-170.667h512v170.667h170.667v256c0 70.613-57.387 128-128 128zM682.667 128h-341.333v213.333h341.333v-213.333zM810.667 426.667c-23.68 0-42.667 18.987-42.667 42.667s18.987 42.667 42.667 42.667c23.68 0 42.667-18.987 42.667-42.667s-18.987-42.667-42.667-42.667zM768 810.667h-512v-170.667h512v170.667z" />
<glyph unicode="&#xe606;" glyph-name="bt-settings" d="M469.333-85.333h85.333v85.333h-85.333v-85.333zM298.667-85.333h85.333v85.333h-85.333v-85.333zM640-85.333h85.333v85.333h-85.333v-85.333zM755.413 695.254l-243.413 243.413h-42.667v-323.627l-195.627 195.627-60.373-60.373 238.293-238.293-238.293-238.293 60.373-60.373 195.627 195.627v-323.627h42.667l243.413 243.413-183.040 183.253 183.040 183.253zM554.667 775.254l80.213-80.213-80.213-80v160.213zM634.88 328.747l-80.213-80v160.213l80.213-80.213z" />
<glyph unicode="&#xe607;" glyph-name="settings-ethernet" d="M331.52 650.24l-65.707 54.4-230.827-277.973 230.827-278.187 65.707 54.4-185.6 223.787 185.6 223.573zM298.667 384h85.333v85.333h-85.333v-85.333zM725.333 469.334h-85.333v-85.333h85.333v85.333zM469.333 384h85.333v85.333h-85.333v-85.333zM758.187 704.854l-65.707-54.4 185.6-223.787-185.6-223.573 65.707-54.4 230.827 277.973-230.827 278.187z" />
<glyph unicode="&#xe608;" glyph-name="settings-phone" d="M554.667 554.667h-85.333v-85.333h85.333v85.333zM725.333 554.667h-85.333v-85.333h85.333v85.333zM853.333 277.334c-53.12 0-104.32 8.533-152.32 24.32-14.72 4.693-31.573 1.28-43.307-10.453l-93.867-94.080c-120.96 61.44-219.52 160.213-281.173 280.96l93.867 94.080c11.733 11.733 15.147 28.587 10.453 43.307-15.787 48-24.32 99.413-24.32 152.533 0 23.68-18.987 42.667-42.667 42.667h-149.333c-23.68 0-42.667-18.987-42.667-42.667 0-400.64 324.693-725.333 725.333-725.333 23.68 0 42.667 18.987 42.667 42.667v149.333c0 23.68-18.987 42.667-42.667 42.667zM810.667 554.667v-85.333h85.333v85.333h-85.333z" />
<glyph unicode="&#xe609;" glyph-name="settings-power" d="M298.667-85.333h85.333v85.333h-85.333v-85.333zM469.333-85.333h85.333v85.333h-85.333v-85.333zM554.667 853.334h-85.333v-426.667h85.333v426.667zM706.773 749.44l-61.653-61.653c73.6-45.013 122.88-125.867 122.88-218.453 0-141.44-114.56-256-256-256s-256 114.56-256 256c0 92.587 49.28 173.44 122.88 218.453l-61.653 61.653c-88.533-61.653-146.56-164.053-146.56-280.107 0-188.587 152.747-341.333 341.333-341.333s341.333 152.747 341.333 341.333c0 116.053-58.027 218.453-146.56 280.107zM640-85.333h85.333v85.333h-85.333v-85.333z" />
<glyph unicode="&#xe60a;" glyph-name="settings-voice" d="M298.667-85.333h85.333v85.333h-85.333v-85.333zM512 384c70.613 0 127.573 57.387 127.573 128l0.427 256c0 70.827-57.173 128-128 128-70.613 0-128-57.173-128-128v-256c0-70.613 57.387-128 128-128zM469.333-85.333h85.333v85.333h-85.333v-85.333zM640-85.333h85.333v85.333h-85.333v-85.333zM810.667 512h-72.533c0-128-108.16-217.6-226.133-217.6-117.76 0-226.133 89.6-226.133 217.6h-72.533c0-145.707 116.053-266.027 256-286.72v-139.947h85.333v139.947c139.947 20.693 256 141.013 256 286.72z" />
<glyph unicode="&#xe60b;" glyph-name="shopping-basket" d="M734.293 554.667l-186.88 279.68c-8.107 12.373-21.76 18.133-35.413 18.133s-27.307-5.973-35.413-18.133l-186.88-279.68h-204.373c-23.467 0-42.667-19.2-42.667-42.667 0-4.053 0.64-7.893 1.493-11.52l108.16-395.52c10.027-35.84 43.093-62.293 82.347-62.293h554.667c39.253 0 72.32 26.453 82.133 62.507l108.16 395.52c1.067 3.413 1.707 7.253 1.707 11.307 0 23.467-19.2 42.667-42.667 42.667h-204.373zM384 554.667l128 187.733 128-187.733h-256zM512 213.334c-47.147 0-85.333 38.187-85.333 85.333s38.187 85.333 85.333 85.333 85.333-38.187 85.333-85.333-38.187-85.333-85.333-85.333z" />
<glyph unicode="&#xe60c;" glyph-name="wifi-low" d="M512 558.080c-83.584 0-159.232-33.877-214.016-88.661l60.416-60.416c39.339 39.381 93.653 63.744 153.6 63.744s114.261-24.363 153.6-63.744l60.416 60.416c-54.784 54.784-130.432 88.661-214.016 88.661zM512 380.63c-35.328 0-64-28.715-64-64.043s28.672-64 64-64 64 28.672 64 64-28.672 64.043-64 64.043z" />
<glyph unicode="&#xe60d;" glyph-name="wifi-mid" d="M297.984 387.499l60.416-60.416c39.339 39.339 93.653 63.744 153.6 63.744s114.261-24.405 153.6-63.744l60.416 60.416c-54.784 54.784-130.432 88.661-214.016 88.661s-159.232-33.877-214.016-88.661zM512 670.848c-137.344 0-261.675-55.68-351.659-145.664l60.501-60.501c74.581 74.624 177.579 120.832 291.157 120.832s216.576-46.208 291.157-120.832l60.501 60.501c-89.984 89.984-214.315 145.664-351.659 145.664zM512 298.667c-35.328 0-64-28.672-64-64s28.672-64 64-64 64 28.672 64 64-28.672 64-64 64z" />
<glyph unicode="&#xe60e;" glyph-name="dialer-sip" d="M725.333 810.667h-42.667v-213.333h42.667v213.333zM640 725.334h-85.333v42.667h85.333v42.667h-128v-128h85.333v-42.667h-85.333v-42.667h128v128zM768 810.667v-213.333h42.667v85.333h85.333v128h-128zM853.333 725.334h-42.667v42.667h42.667v-42.667zM853.333 277.334c-53.12 0-104.32 8.533-152.32 24.32-14.72 4.693-31.573 1.28-43.307-10.453l-93.867-94.080c-120.747 61.44-219.52 160.213-281.173 280.96l93.867 94.080c11.733 11.733 15.147 28.587 10.453 43.307-15.787 48-24.32 99.413-24.32 152.533 0 23.68-18.987 42.667-42.667 42.667h-149.333c-23.68 0-42.667-18.987-42.667-42.667 0-400.64 324.693-725.333 725.333-725.333 23.68 0 42.667 18.987 42.667 42.667v149.333c0 23.68-18.987 42.667-42.667 42.667z" />
<glyph unicode="&#xe60f;" glyph-name="dialpad" d="M512 128c-47.147 0-85.333-38.187-85.333-85.333s38.187-85.333 85.333-85.333 85.333 38.187 85.333 85.333-38.187 85.333-85.333 85.333zM256 896c-47.147 0-85.333-38.187-85.333-85.333s38.187-85.333 85.333-85.333 85.333 38.187 85.333 85.333-38.187 85.333-85.333 85.333zM256 640c-47.147 0-85.333-38.187-85.333-85.333s38.187-85.333 85.333-85.333 85.333 38.187 85.333 85.333-38.187 85.333-85.333 85.333zM256 384c-47.147 0-85.333-38.187-85.333-85.333s38.187-85.333 85.333-85.333 85.333 38.187 85.333 85.333-38.187 85.333-85.333 85.333zM768 725.334c47.147 0 85.333 38.187 85.333 85.333s-38.187 85.333-85.333 85.333-85.333-38.187-85.333-85.333 38.187-85.333 85.333-85.333zM512 384c-47.147 0-85.333-38.187-85.333-85.333s38.187-85.333 85.333-85.333 85.333 38.187 85.333 85.333-38.187 85.333-85.333 85.333zM768 384c-47.147 0-85.333-38.187-85.333-85.333s38.187-85.333 85.333-85.333 85.333 38.187 85.333 85.333-38.187 85.333-85.333 85.333zM768 640c-47.147 0-85.333-38.187-85.333-85.333s38.187-85.333 85.333-85.333 85.333 38.187 85.333 85.333-38.187 85.333-85.333 85.333zM512 640c-47.147 0-85.333-38.187-85.333-85.333s38.187-85.333 85.333-85.333 85.333 38.187 85.333 85.333-38.187 85.333-85.333 85.333zM512 896c-47.147 0-85.333-38.187-85.333-85.333s38.187-85.333 85.333-85.333 85.333 38.187 85.333 85.333-38.187 85.333-85.333 85.333z" />
<glyph unicode="&#xe610;" glyph-name="contacts-dialer" d="M938.667 810.667h-853.333c-47.147 0-85.333-38.187-85.333-85.333v-597.333c0-47.147 38.187-85.333 85.333-85.333h853.333c47.147 0 84.907 38.187 84.907 85.333l0.427 597.333c0 47.147-38.187 85.333-85.333 85.333zM341.333 682.667c70.613 0 128-57.387 128-128 0-70.827-57.387-128-128-128s-128 57.173-128 128c0 70.613 57.387 128 128 128zM597.333 170.667h-512v42.667c0 85.333 170.667 132.267 256 132.267s256-46.933 256-132.267v-42.667zM761.6 341.334h69.973l64.427-85.333-85.12-85.12c-55.68 41.813-97.28 101.333-116.48 170.453-7.467 27.307-11.733 55.68-11.733 85.333s4.267 58.027 11.947 85.333c18.987 69.12 60.587 128.64 116.48 170.453l84.907-85.12-64.427-85.333h-69.973c-9.387-26.667-14.933-55.467-14.933-85.333s5.333-58.667 14.933-85.333z" />
<glyph unicode="&#xe611;" glyph-name="contacts-mail" d="M896 597.334v42.667l-128-85.333-128 85.333v-42.667l128-85.333 128 85.333zM938.667 810.667h-853.333c-47.147 0-85.333-38.187-85.333-85.333v-597.333c0-47.147 38.187-85.333 85.333-85.333h853.333c47.147 0 84.907 38.187 84.907 85.333l0.427 597.333c0 47.147-38.187 85.333-85.333 85.333zM341.333 682.667c70.613 0 128-57.387 128-128 0-70.827-57.387-128-128-128s-128 57.173-128 128c0 70.613 57.387 128 128 128zM597.333 170.667h-512v42.667c0 85.333 170.667 132.267 256 132.267s256-46.933 256-132.267v-42.667zM938.667 426.667h-341.333v256h341.333v-256z" />
<glyph unicode="&#xe612;" glyph-name="ring-volume" d="M1011.413 227.414c-129.92 123.52-305.92 199.253-499.413 199.253s-369.493-75.733-499.413-199.253c-7.893-7.68-12.587-18.56-12.587-30.293s4.693-22.4 12.587-30.080l105.6-105.6c7.68-7.68 18.347-12.587 30.080-12.587 11.52 0 22.187 4.693 29.867 12.16 33.92 31.36 72.107 58.027 113.707 78.933 14.080 7.040 23.893 21.547 23.893 38.4v132.48c61.867 19.84 127.787 30.507 196.267 30.507s134.4-10.667 196.267-30.72v-132.48c0-16.853 9.813-31.36 23.893-38.4 41.6-20.907 80-47.573 113.707-78.933 7.68-7.467 18.133-12.16 29.867-12.16s22.4 4.693 30.293 12.587l105.6 105.6c7.68 7.68 12.587 18.347 12.587 30.080-0.213 11.947-4.907 22.827-12.8 30.507zM902.827 671.787l-60.373 60.373-151.893-151.893 60.373-60.373s147.2 150.187 151.893 151.893zM554.667 853.334h-85.333v-213.333h85.333v213.333zM273.067 519.894l60.373 60.373-151.893 151.893-60.373-60.373c4.693-1.707 151.893-151.893 151.893-151.893z" />
<glyph unicode="&#xe613;" glyph-name="voicemail" d="M789.333 682.667c-129.707 0-234.667-104.96-234.667-234.667 0-56.747 20.053-108.8 53.547-149.333h-192.64c33.493 40.533 53.547 92.587 53.547 149.333 0 129.707-104.96 234.667-234.667 234.667s-234.453-104.96-234.453-234.667 104.96-234.667 234.667-234.667h554.667c129.707 0 234.667 104.96 234.667 234.667s-104.96 234.667-234.667 234.667zM234.667 298.667c-82.56 0-149.333 66.773-149.333 149.333s66.773 149.333 149.333 149.333 149.333-66.773 149.333-149.333-66.773-149.333-149.333-149.333zM789.333 298.667c-82.56 0-149.333 66.773-149.333 149.333s66.773 149.333 149.333 149.333 149.333-66.773 149.333-149.333-66.773-149.333-149.333-149.333z" />
<glyph unicode="&#xe614;" glyph-name="drafts" d="M938.24 597.334c0 30.72-16 57.387-40.107 72.533l-386.133 226.133-386.133-226.133c-24.107-15.147-40.533-41.813-40.533-72.533v-426.667c0-47.147 38.187-85.333 85.333-85.333h682.667c47.147 0 85.333 38.187 85.333 85.333l-0.427 426.667zM512 384l-352.427 220.373 352.427 206.293 352.427-206.293-352.427-220.373z" />
<glyph unicode="&#xe615;" glyph-name="mail" d="M853.333 768h-682.667c-47.147 0-84.907-38.187-84.907-85.333l-0.427-512c0-47.147 38.187-85.333 85.333-85.333h682.667c47.147 0 85.333 38.187 85.333 85.333v512c0 47.147-38.187 85.333-85.333 85.333zM853.333 597.334l-341.333-213.333-341.333 213.333v85.333l341.333-213.333 341.333 213.333v-85.333z" />
<glyph unicode="&#xe616;" glyph-name="multitrack-audio" d="M298.667 170.667h85.333v512h-85.333v-512zM469.333-0h85.333v853.333h-85.333v-853.333zM128 341.334h85.333v170.667h-85.333v-170.667zM640 170.667h85.333v512h-85.333v-512zM810.667 512v-170.667h85.333v170.667h-85.333z" />
<glyph unicode="&#xe617;" glyph-name="widgets" d="M554.667 384v-341.333h341.333v341.333h-341.333zM128 42.667h341.333v341.333h-341.333v-341.333zM128 810.667v-341.333h341.333v341.333h-341.333zM710.613 866.774l-241.28-241.493 241.28-241.28 241.28 241.28-241.28 241.493z" />
<glyph unicode="&#xe618;" glyph-name="security" d="M512 896l-384-170.667v-256c0-237.013 163.627-458.027 384-512 220.373 53.973 384 274.987 384 512v256l-384 170.667zM512 427.094h298.667c-22.613-175.787-139.733-332.373-298.667-381.227v380.8h-298.667v243.2l298.667 132.693v-375.467z" />
<glyph unicode="&#xe619;" glyph-name="palette" d="M512 810.667c-212.053 0-384-171.947-384-384s171.947-384 384-384c35.413 0 64 28.587 64 64 0 16.64-6.187 31.573-16.64 42.88-10.027 11.307-16 26.027-16 42.453 0 35.413 28.587 64 64 64h75.307c117.76 0 213.333 95.573 213.333 213.333 0 188.587-171.947 341.333-384 341.333zM277.333 426.667c-35.413 0-64 28.587-64 64s28.587 64 64 64 64-28.587 64-64-28.587-64-64-64zM405.333 597.334c-35.413 0-64 28.587-64 64s28.587 64 64 64 64-28.587 64-64-28.587-64-64-64zM618.667 597.334c-35.413 0-64 28.587-64 64s28.587 64 64 64 64-28.587 64-64-28.587-64-64-64zM746.667 426.667c-35.413 0-64 28.587-64 64s28.587 64 64 64 64-28.587 64-64-28.587-64-64-64z" />
<glyph unicode="&#xe61a;" glyph-name="layers-clear" d="M845.227 299.094l50.773 39.467-60.8 60.8-50.773-39.467 60.8-60.8zM826.24 500.267l69.76 54.4-384 298.667-124.373-96.64 336-336 102.613 79.573zM139.733 896l-54.4-54.4 180.053-180.053-137.387-106.88 69.547-53.973 314.453-244.693 89.387 69.547 60.8-60.8-150.613-117.12-314.453 244.693-69.12-53.76 384-298.667 210.987 164.267 161.493-161.493 54.187 54.4-798.933 798.933z" />
<glyph unicode="&#xe61b;" glyph-name="florist" d="M512-0c212.053 0 384 171.947 384 384-212.053 0-384-171.947-384-384zM239.147 501.334c0-58.88 47.787-106.667 106.667-106.667 22.4 0 43.307 7.040 60.373 18.773l-0.853-8.107c0-58.88 47.787-106.667 106.667-106.667s106.667 47.787 106.667 106.667l-0.853 8.107c17.28-11.947 37.973-18.773 60.373-18.773 58.88 0 106.667 47.787 106.667 106.667 0 42.453-24.96 78.933-61.013 96 35.84 17.067 61.013 53.547 61.013 96 0 58.88-47.787 106.667-106.667 106.667-22.4 0-43.307-7.040-60.373-18.773l0.853 8.107c0 58.88-47.787 106.667-106.667 106.667s-106.667-47.787-106.667-106.667l0.853-8.107c-17.28 11.947-37.973 18.773-60.373 18.773-58.88 0-106.667-47.787-106.667-106.667 0-42.453 24.96-78.933 61.013-96-36.053-17.067-61.013-53.547-61.013-96zM512 704c58.88 0 106.667-47.787 106.667-106.667s-47.787-106.667-106.667-106.667-106.667 47.787-106.667 106.667 47.787 106.667 106.667 106.667zM128 384c0-212.053 171.947-384 384-384 0 212.053-171.947 384-384 384z" />
<glyph unicode="&#xe61c;" glyph-name="gas-station" d="M843.52 630.187l0.64 0.64-158.933 158.507-45.227-45.227 90.027-90.027c-40.107-15.36-68.693-53.973-68.693-99.413 0-58.88 47.787-106.667 106.667-106.667 15.147 0 29.653 3.2 42.667 8.96v-307.627c0-23.467-19.2-42.667-42.667-42.667s-42.667 19.2-42.667 42.667v192c0 47.147-38.187 85.333-85.333 85.333h-42.667v298.667c0 47.147-38.187 85.333-85.333 85.333h-256c-47.147 0-85.333-38.187-85.333-85.333v-682.667h426.667v320h64v-213.333c0-58.88 47.787-106.667 106.667-106.667s106.667 47.787 106.667 106.667v405.333c0 29.44-11.947 56.107-31.147 75.52zM512 512h-256v213.333h256v-213.333zM768 512c-23.467 0-42.667 19.2-42.667 42.667s19.2 42.667 42.667 42.667 42.667-19.2 42.667-42.667-19.2-42.667-42.667-42.667z" />
<glyph unicode="&#xe61d;" glyph-name="local-service" d="M391.253 220.587c66.56-66.56 174.72-66.56 241.28 0s66.56 174.72 0 241.28l-241.28-241.28zM768 852.907l-512 0.427c-47.147 0-85.333-38.187-85.333-85.333v-682.667c0-47.147 38.187-85.333 85.333-85.333h512c47.147 0 85.333 38.187 85.333 85.333v682.667c0 47.147-38.187 84.907-85.333 84.907zM426.667 768c23.467 0 42.667-19.2 42.667-42.667s-19.2-42.667-42.667-42.667-42.667 19.2-42.667 42.667 19.2 42.667 42.667 42.667zM298.667 768c23.467 0 42.667-19.2 42.667-42.667s-19.2-42.667-42.667-42.667-42.667 19.2-42.667 42.667 19.2 42.667 42.667 42.667zM512 85.334c-141.44 0-256 114.56-256 256s114.56 256 256 256 256-114.56 256-256-114.56-256-256-256z" />
<glyph unicode="&#xe61e;" glyph-name="my-location" d="M512 597.334c-94.293 0-170.667-76.373-170.667-170.667s76.373-170.667 170.667-170.667 170.667 76.373 170.667 170.667-76.373 170.667-170.667 170.667zM893.44 469.334c-19.627 177.92-160.853 319.147-338.773 338.773v87.893h-85.333v-87.893c-177.92-19.627-319.147-160.853-338.773-338.773h-87.893v-85.333h87.893c19.627-177.92 160.853-319.147 338.773-338.773v-87.893h85.333v87.893c177.92 19.627 319.147 160.853 338.773 338.773h87.893v85.333h-87.893zM512 128c-164.907 0-298.667 133.76-298.667 298.667s133.76 298.667 298.667 298.667 298.667-133.76 298.667-298.667-133.76-298.667-298.667-298.667z" />
<glyph unicode="&#xe61f;" glyph-name="school" d="M213.333 376.32v-170.667l298.667-162.987 298.667 162.987v170.667l-298.667-162.987-298.667 162.987zM512 810.667l-469.333-256 469.333-256 384 209.493v-294.827h85.333v341.333l-469.333 256z" />
<glyph unicode="&#xe620;" glyph-name="map2" d="M874.667 810.667c-2.347 0-4.48-0.213-6.613-1.067l-228.053-88.533-256 89.6-240.427-81.067c-8.96-2.987-15.573-10.667-15.573-20.48v-645.12c0-11.733 9.6-21.333 21.333-21.333 2.347 0 4.48 0.213 6.613 1.067l228.053 88.533 256-89.6 240.64 80.853c8.96 3.2 15.36 10.88 15.36 20.693v645.12c0 11.733-9.6 21.333-21.333 21.333zM640 128l-256 89.813v507.52l256-89.813v-507.52z" />
<glyph unicode="&#xe621;" glyph-name="traff" d="M853.333 512h-128v48.64c73.6 18.987 128 85.12 128 164.693h-128v42.667c0 23.467-18.987 42.667-42.667 42.667h-341.333c-23.467 0-42.667-19.2-42.667-42.667v-42.667h-128c0-79.36 54.613-145.707 128-164.693v-48.64h-128c0-79.36 54.613-145.707 128-164.693v-48.64h-128c0-79.36 54.613-145.707 128-164.693v-48.64c0-23.467 19.2-42.667 42.667-42.667h341.333c23.68 0 42.667 19.2 42.667 42.667v48.64c73.6 18.987 128 85.12 128 164.693h-128v48.64c73.6 18.987 128 85.333 128 164.693zM512 128c-47.147 0-85.333 38.187-85.333 85.333s38.187 85.333 85.333 85.333 85.333-38.187 85.333-85.333-38.187-85.333-85.333-85.333zM512 341.334c-47.147 0-85.333 38.187-85.333 85.333s38.187 85.333 85.333 85.333 85.333-38.187 85.333-85.333-38.187-85.333-85.333-85.333zM512 554.667c-47.147 0-85.333 38.187-85.333 85.333s38.187 85.333 85.333 85.333 85.333-38.187 85.333-85.333-38.187-85.333-85.333-85.333z" />
<glyph unicode="&#xe622;" glyph-name="sync-disabled" d="M426.667 667.734v89.173c-34.133-8.747-65.92-22.827-95.147-40.96l62.507-62.507c10.453 5.333 21.333 10.453 32.64 14.293zM122.24 707.84l100.48-100.48c-32.853-52.48-52.053-114.133-52.053-180.693 0-94.293 38.613-179.2 100.48-240.853l-100.48-100.48h256v256l-95.36-95.36c-46.507 46.293-75.307 110.080-75.307 180.693 0 42.667 10.667 82.773 29.227 118.187l344.96-344.96c-10.453-5.547-21.333-10.453-32.64-14.507v-88.96c34.133 8.747 65.92 22.827 95.147 40.96l100.693-100.693 54.4 54.4-671.36 671.147-54.187-54.4zM853.333 768h-256v-256l95.36 95.36c46.507-46.293 75.307-110.080 75.307-180.693 0-42.667-10.667-82.773-29.227-118.187l62.507-62.507c32.853 52.48 52.053 114.133 52.053 180.693 0 94.293-38.613 179.2-100.48 240.853l100.48 100.48z" />
<glyph unicode="&#xe623;" glyph-name="sync-problem" d="M128 426.667c0-94.293 38.827-179.2 100.48-240.853l-100.48-100.48h256v256l-95.36-95.36c-46.507 46.293-75.307 110.080-75.307 180.693 0 111.36 71.253 205.867 170.667 241.067v89.173c-147.2-37.973-256-171.307-256-330.24zM469.333 213.334h85.333v85.333h-85.333v-85.333zM896 768h-256v-256l95.36 95.36c46.507-46.293 75.307-110.080 75.307-180.693 0-111.36-71.253-205.867-170.667-241.067v-88.96c147.2 37.76 256 171.093 256 330.027 0 94.293-38.827 179.2-100.48 240.853l100.48 100.48zM469.333 384h85.333v256h-85.333v-256z" />
<glyph unicode="&#xe624;" glyph-name="vpn-lock" d="M938.667 768v21.333c0 58.88-47.787 106.667-106.667 106.667s-106.667-47.787-106.667-106.667v-21.333c-23.68 0-42.667-19.2-42.667-42.667v-170.667c0-23.467 18.987-42.667 42.667-42.667h213.333c23.68 0 42.667 19.2 42.667 42.667v170.667c0 23.467-18.987 42.667-42.667 42.667zM904.533 768h-145.067v21.333c0 40.107 32.427 72.533 72.533 72.533s72.533-32.427 72.533-72.533v-21.333zM807.467 426.667c1.707-14.080 3.2-28.16 3.2-42.667 0-88.747-34.133-169.387-89.813-230.187-10.88 34.56-42.88 59.52-80.853 59.52h-42.667v128c0 23.467-19.2 42.667-42.667 42.667h-256v85.333h85.333c23.467 0 42.667 19.2 42.667 42.667v85.333h85.333c47.147 0 85.333 38.187 85.333 85.333v108.373c-40.32 12.8-83.413 19.627-128 19.627-235.733 0-426.667-190.933-426.667-426.667s190.933-426.667 426.667-426.667 426.667 190.933 426.667 426.667c0 14.507-0.853 28.587-2.133 42.667h-86.4zM426.667 45.654c-168.32 20.907-298.667 164.267-298.667 338.347 0 26.24 3.2 51.84 8.96 76.373l204.373-204.373v-42.667c0-47.147 38.187-85.333 85.333-85.333v-82.347z" />
<glyph unicode="&#xe625;" glyph-name="vpn-publ" d="M512 853.334c-235.733 0-426.667-190.933-426.667-426.667s190.933-426.667 426.667-426.667 426.667 190.933 426.667 426.667-190.933 426.667-426.667 426.667zM469.333 88.32c-168.32 20.907-298.667 164.267-298.667 338.347 0 26.24 3.2 51.84 8.96 76.373l204.373-204.373v-42.667c0-47.147 38.187-85.333 85.333-85.333v-82.347zM763.52 196.48c-10.88 34.56-42.88 59.52-80.853 59.52h-42.667v128c0 23.467-19.2 42.667-42.667 42.667h-256v85.333h85.333c23.467 0 42.667 19.2 42.667 42.667v85.333h85.333c47.147 0 85.333 38.187 85.333 85.333v17.707c125.013-50.56 213.333-173.013 213.333-316.373 0-88.747-34.133-169.387-89.813-230.187z" />
<glyph unicode="&#xe626;" glyph-name="bluetooth" d="M755.413 609.92l-243.413 243.413h-42.667v-323.627l-195.627 195.627-60.373-60.373 238.293-238.293-238.293-238.293 60.373-60.373 195.627 195.627v-323.627h42.667l243.413 243.413-183.040 183.253 183.040 183.253zM554.667 689.92l80.213-80.213-80.213-80v160.213zM634.88 243.414l-80.213-80v160.427l80.213-80.427z" />
<glyph unicode="&#xe627;" glyph-name="bt-connected" d="M298.667 426.667l-85.333 85.333-85.333-85.333 85.333-85.333 85.333 85.333zM755.413 609.92l-243.413 243.413h-42.667v-323.627l-195.627 195.627-60.373-60.373 238.293-238.293-238.293-238.293 60.373-60.373 195.627 195.627v-323.627h42.667l243.413 243.413-183.040 183.253 183.040 183.253zM554.667 689.92l80.213-80.213-80.213-80v160.213zM634.88 243.414l-80.213-80v160.427l80.213-80.427zM810.667 512l-85.333-85.333 85.333-85.333 85.333 85.333-85.333 85.333z" />
<glyph unicode="&#xe628;" glyph-name="bt-disabled" d="M554.667 686.294l80.213-80.213-68.267-68.267 60.373-60.373 128.64 128.64-243.627 243.627h-42.667v-214.613l85.333-85.333v136.533zM231.040 764.374l-60.373-60.373 280.96-280.96-238.293-238.293 60.373-60.373 195.627 195.627v-323.627h42.667l183.253 183.253 97.92-97.92 60.16 60.373-622.293 622.293zM554.667 159.787v160.213l80.213-80.213-80.213-80z" />
<glyph unicode="&#xe629;" glyph-name="bt-searching" d="M607.573 426.24l98.987-98.987c11.947 30.933 18.773 64.427 18.773 99.413 0 34.773-6.613 68.053-18.347 98.773l-99.413-99.2zM833.28 652.16l-53.973-53.973c26.667-51.413 42.027-109.653 42.027-171.733s-15.36-120.107-42.027-171.733l51.2-51.2c41.173 66.133 65.493 143.573 65.493 226.773 0 81.493-23.253 157.227-62.72 221.867zM670.080 609.92l-243.413 243.413h-42.667v-323.627l-195.627 195.627-60.373-60.373 238.293-238.293-238.293-238.293 60.373-60.373 195.627 195.627v-323.627h42.667l243.413 243.413-183.040 183.253 183.040 183.253zM469.333 689.92l80.213-80.213-80.213-80v160.213zM549.547 243.414l-80.213-80v160.427l80.213-80.427z" />
<glyph unicode="&#xe62a;" glyph-name="brightness-auto" d="M462.933 398.934h98.133l-49.067 155.733-49.067-155.733zM853.333 568.107v199.893h-199.893l-141.44 141.44-141.44-141.44h-199.893v-199.893l-141.44-141.44 141.44-141.44v-199.893h199.893l141.44-141.44 141.44 141.44h199.893v199.893l141.44 141.44-141.44 141.44zM610.133 256l-29.867 85.333h-136.533l-29.867-85.333h-81.067l136.533 384h85.333l136.533-384h-81.067z" />
<glyph unicode="&#xe62b;" glyph-name="cabinet" d="M160 0v768l133.344 128h405.344l133.312-128v-768h-672zM800 256v480h-608v-704h608v224zM768 512h-544v192h544v-192zM576 640h-160v-32h160v32zM768 288h-544v192h544v-192zM576 416h-160v-32h160v32zM768 64h-544v192h544v-192zM576 192h-160v-32h160v32z" />
<glyph unicode="&#xe62c;" glyph-name="suitcase" d="M864 32h-736c-35.36 0-64 28.672-64 64v384c0 0 167.072-85.92 320-121.088v-38.912c0-17.696 14.304-32 32-32h160c17.664 0 32 14.304 32 32v38.912c152.896 35.168 320 121.088 320 121.088v-384c0-35.328-28.672-64-64-64zM544 416c17.664 0 32-14.304 32-32v-32c0-17.696-14.336-32-32-32h-96c-17.696 0-32 14.304-32 32v32c0 17.696 14.304 32 32 32h96zM608 416c0 17.696-14.336 32-32 32h-160c-17.696 0-32-14.304-32-32v-28.672c-152.928 36.224-320 124.672-320 124.672v128c0 35.328 28.64 64 64 64h192v64c0 35.328 28.672 64 64 64h224c35.328 0 64-28.672 64-64v-64h192c35.328 0 64-28.672 64-64v-128c0 0-167.104-88.448-320-124.672v28.672zM608 736c0 17.696-14.336 32-32 32h-160c-17.696 0-32-14.304-32-32 0-17.664 0-32 0-32h224c0 0 0 14.336 0 32z" />
<glyph unicode="&#xe62d;" glyph-name="battery-full" d="M896 512c-17.696 0-32 0-32 0v32c0 35.328-28.672 64-64 64h-640c-35.328 0-64-28.672-64-64v-224c0-35.328 28.672-64 64-64h640c35.328 0 64 28.672 64 64v32c0 0 14.304 0 32 0 17.664 0 32 14.336 32 32v96c0 17.696-14.336 32-32 32zM832 320c0-17.664-14.336-32-32-32h-640c-17.696 0-32 14.336-32 32v224c0 17.696 14.304 32 32 32h640c17.664 0 32-14.304 32-32v-224zM160 320h192v224h-192v-224zM384 320h192v224h-192v-224zM608 320h192v224h-192v-224z" />
<glyph unicode="&#xe62e;" glyph-name="battery-two" d="M896 512c-17.696 0-32 0-32 0v32c0 35.328-28.672 64-64 64h-640c-35.36 0-64-28.672-64-64v-224c0-35.328 28.64-64 64-64h640c35.328 0 64 28.672 64 64v32c0 0 14.304 0 32 0 17.664 0 32 14.336 32 32v96c0 17.696-14.336 32-32 32zM832 320c0-17.664-14.336-32-32-32h-640c-17.696 0-32 14.336-32 32v224c0 17.696 14.304 32 32 32h640c17.664 0 32-14.304 32-32v-224zM160 320h192v224h-192v-224zM384 320h192v224h-192v-224z" />
<glyph unicode="&#xe62f;" glyph-name="battery-one" d="M896 512c-17.696 0-32 0-32 0v32c0 35.328-28.672 64-64 64h-640c-35.36 0-64-28.672-64-64v-224c0-35.328 28.64-64 64-64h640c35.328 0 64 28.672 64 64v32c0 0 14.304 0 32 0 17.664 0 32 14.336 32 32v96c0 17.696-14.336 32-32 32zM832 320c0-17.664-14.336-32-32-32h-640c-17.696 0-32 14.336-32 32v224c0 17.696 14.304 32 32 32h640c17.664 0 32-14.304 32-32v-224zM160 320h192v224h-192v-224z" />
<glyph unicode="&#xe630;" glyph-name="battery-empty" d="M896 352c-17.696 0-32 0-32 0v-32c0-35.328-28.64-64-64-64h-640c-35.36 0-64 28.672-64 64v224c0 35.328 28.64 64 64 64h640c35.36 0 64-28.672 64-64v-32c0 0 14.304 0 32 0s32-14.304 32-32v-96c0-17.664-14.304-32-32-32zM832 544c0 17.696-14.304 32-32 32h-640c-17.696 0-32-14.304-32-32v-224c0-17.664 14.304-32 32-32h640c17.696 0 32 14.336 32 32v224z" />
<glyph unicode="&#xe631;" glyph-name="battery-charge" d="M608.352 32.352h-224.672c-35.168 0-63.616 28.48-63.616 63.616v608.448c0 35.136 28.48 63.616 63.616 63.616h33.824c0 0 0-1.664 0 15.904s12.256 47.712 29.824 47.712h95.424c17.568 0 31.808-30.144 31.808-47.712s0-15.904 0-15.904h33.824c35.168 0 63.616-28.512 63.616-63.616v-608.448c-0.032-35.168-28.512-63.616-63.648-63.616zM542.72 670.592h-31.808v31.808h-29.824v-31.808h-31.808v-31.808h31.808v-31.808h29.824v31.808h31.808v31.808zM640.16 545.344h-288.32v-449.376c0-17.6 14.24-31.808 31.808-31.808h224.672c17.568 0 31.808 14.208 31.808 31.808v449.376zM447.296 161.6h97.44v-33.824h-97.44v33.824z" />
<glyph unicode="&#xe632;" glyph-name="tools" d="M889.056 706.048c30.688-74.016 16.064-162.368-44.128-222.56-66.272-66.272-166.432-76.64-244.288-32.704l-56.288-61.472 40.16-40.32 24 24c12.256 12.288 32.16 12.288 44.416 0l194.624-196.608c12.288-12.256 12.288-32.16 0-44.416l-88.832-88.832c-12.256-12.288-32.16-12.288-44.416 0l-194.624 196.608c-12.288 12.256-12.288 32.16 0 44.416l21.92 21.92-38.272 38.368-269.152-294.048c-24.544-24.544-64.32-24.544-88.832 0l-22.208 22.208c-24.544 24.544-24.544 64.32 0 88.832l306.624 256.8-203.648 204.192-64.32 0.032-74.432 119.68 59.904 60 122.4-74.912 0.8-62.976 206.016-206.816 59.936 50.176c-58.592 79.872-52.48 192.384 19.712 264.576 59.904 59.904 147.776 74.784 221.6 44.672l-131.968-130.144 111.072-111.072 132.224 130.4zM196.8 130.112c-12.256 12.256-32.128 12.256-44.416 0-12.288-12.288-12.288-32.16 0-44.448 12.288-12.256 32.16-12.256 44.416 0 12.288 12.32 12.288 32.192 0 44.448z" />
<glyph unicode="&#xe633;" glyph-name="not" d="M512 853.334c-234.667 0-426.667-192-426.667-426.667s192-426.667 426.667-426.667 426.667 192 426.667 426.667-192 426.667-426.667 426.667zM170.667 426.667c0 187.733 153.6 341.333 341.333 341.333 78.933 0 151.467-27.733 209.067-72.533l-477.867-477.867c-44.8 57.6-72.533 130.133-72.533 209.067zM512 85.334c-78.933 0-151.467 27.733-209.067 72.533l477.867 477.867c44.8-57.6 72.533-130.133 72.533-209.067 0-187.733-153.6-341.333-341.333-341.333z" />
<glyph unicode="&#xe634;" glyph-name="wifi-full" d="M297.984 259.499l60.416-60.416c39.339 39.339 93.653 63.744 153.6 63.744s114.261-24.405 153.6-63.744l60.416 60.416c-54.784 54.741-130.432 88.661-214.016 88.661s-159.232-33.92-214.016-88.661zM160.341 397.184l60.501-60.501c74.581 74.624 177.579 120.832 291.157 120.832s216.576-46.208 291.157-120.832l60.501 60.501c-89.984 89.984-214.315 145.664-351.659 145.664s-261.675-55.68-351.659-145.664zM512 737.494c-191.104 0-364.075-77.44-489.344-202.709l60.544-60.544c109.867 109.867 261.547 177.92 428.8 177.92s318.933-68.053 428.8-177.92l60.544 60.544c-125.269 125.269-298.24 202.709-489.344 202.709zM512 170.667c-35.328 0-64-28.672-64-64s28.672-64 64-64 64 28.672 64 64-28.672 64-64 64z" />
<glyph unicode="&#xe635;" glyph-name="tablet-landscape" d="M981.333 128v597.333c0 46.933-38.4 85.333-85.333 85.333h-768c-46.933 0-85.333-38.4-85.333-85.333v-597.333c0-46.933 38.4-85.333 85.333-85.333h768c46.933 0 85.333 38.4 85.333 85.333zM85.333 384v85.333h85.333v-85.333h-85.333zM213.333 128v597.333h682.667v-597.333h-682.667z" />
<glyph unicode="&#xe636;" glyph-name="calculator2" d="M170.667 256h128v128h-128v-128zM213.333 341.334h42.667v-42.667h-42.667v42.667zM341.333 256h128v128h-128v-128zM384 341.334h42.667v-42.667h-42.667v42.667zM341.333 85.334h128v128h-128v-128zM384 170.667h42.667v-42.667h-42.667v42.667zM170.667 85.334h128v128h-128v-128zM213.333 170.667h42.667v-42.667h-42.667v42.667zM512 256h128v128h-128v-128zM554.667 341.334h42.667v-42.667h-42.667v42.667zM426.667 512h42.667v42.667h-42.667v-42.667zM341.333 512h42.667v42.667h-42.667v-42.667zM170.667 426.667h682.667v384h-682.667v-384zM213.333 768h597.333v-298.667h-597.333v298.667zM853.333 938.667h-682.667c-70.699 0-128-57.301-128-128v-768c0-70.699 57.301-128 128-128h682.667c70.699 0 128 57.301 128 128v768c0 70.699-57.301 128-128 128zM896 42.667c0-23.595-19.072-42.667-42.667-42.667h-682.667c-23.595 0-42.667 19.072-42.667 42.667v768c0 23.595 19.072 42.667 42.667 42.667h682.667c23.595 0 42.667-19.072 42.667-42.667v-768zM512 85.334h128v128h-128v-128zM554.667 170.667h42.667v-42.667h-42.667v42.667zM682.667 85.334h170.667v298.667h-170.667v-298.667zM725.333 341.334h85.333v-213.333h-85.333v213.333zM256 512h42.667v42.667h-42.667v-42.667z" />
<glyph unicode="&#xe637;" glyph-name="barbell" d="M928.725 554.667c-23.467 0-32.725-38.4-32.725-85.333v-85.333c0-46.933 9.259-85.333 32.725-85.333s32.725 38.4 32.725 85.333h62.549v85.333h-62.592c0 46.933-9.259 85.333-32.683 85.333zM768 682.667c-42.667 0-42.667-38.4-42.667-85.333v-128h-426.667v128c0 46.933 0 85.333-42.667 85.333-46.933 0-85.333-38.4-85.333-85.333v-341.333c0-46.933 38.4-85.333 85.333-85.333 42.667 0 42.667 38.4 42.667 85.333v128h426.667v-128c0-46.933 0-85.333 42.667-85.333 46.933 0 85.333 38.4 85.333 85.333v341.333c0 46.933-38.4 85.333-85.333 85.333zM95.275 554.667c23.467 0 32.725-38.4 32.725-85.333v-85.333c0-46.933-9.259-85.333-32.725-85.333s-32.725 38.4-32.725 85.333h-62.549v85.333h62.592c0 46.933 9.259 85.333 32.683 85.333z" />
<glyph unicode="&#xe638;" glyph-name="usb1" d="M640 640v-170.667h42.667v-85.333h-128v341.333h85.333l-128 170.667-128-170.667h85.333v-341.333h-128v88.32c30.080 15.573 51.2 46.080 51.2 82.347 0 51.84-42.027 93.867-93.867 93.867s-93.867-42.027-93.867-93.867c0-36.267 21.12-66.773 51.2-82.347v-88.32c0-47.147 38.187-85.333 85.333-85.333h128v-130.133c-30.293-15.573-51.2-46.72-51.2-83.2 0-51.84 42.027-93.867 93.867-93.867s93.867 42.027 93.867 93.867c0 36.48-20.907 67.627-51.2 83.2v130.133h128c47.147 0 85.333 38.187 85.333 85.333v85.333h42.667v170.667h-170.667z" />
<glyph unicode="&#xe639;" glyph-name="money" d="M503.467 473.6c-96.853 25.173-128 50.987-128 91.52 0 46.507 42.88 79.147 115.2 79.147 75.947 0 104.107-36.267 106.667-89.6h94.293c-2.773 73.6-47.787 140.587-136.96 162.56v93.44h-128v-92.16c-82.773-18.133-149.333-71.467-149.333-154.027 0-98.56 81.707-147.627 200.533-176.213 106.88-25.6 128-62.933 128-103.040 0-29.227-20.693-76.16-115.2-76.16-87.893 0-122.667 39.467-127.147 89.6h-94.080c5.333-93.44 75.093-145.707 157.227-163.413v-92.587h128v91.733c82.987 16 149.333 64 149.333 151.68 0 120.747-103.68 162.133-200.533 187.52z" />
<glyph unicode="&#xe63a;" glyph-name="vertical-align-bottom" d="M682.667 384h-128v426.667h-85.333v-426.667h-128l170.667-170.667 170.667 170.667zM170.667 128v-85.333h682.667v85.333h-682.667z" />
<glyph unicode="&#xe63b;" glyph-name="vertical-align-center" d="M341.333 128h128v-170.667h85.333v170.667h128l-170.667 170.667-170.667-170.667zM682.667 725.334h-128v170.667h-85.333v-170.667h-128l170.667-170.667 170.667 170.667zM170.667 469.334v-85.333h682.667v85.333h-682.667z" />
<glyph unicode="&#xe63c;" glyph-name="vertical-align-top" d="M341.333 469.334h128v-426.667h85.333v426.667h128l-170.667 170.667-170.667-170.667zM170.667 810.667v-85.333h682.667v85.333h-682.667z" />
<glyph unicode="&#xe63d;" glyph-name="file-download" d="M810.667 554.667h-170.667v256h-256v-256h-170.667l298.667-298.667 298.667 298.667zM213.333 170.667v-85.333h597.333v85.333h-597.333z" />
<glyph unicode="&#xe63e;" glyph-name="file-upload" d="M384 256h256v256h170.667l-298.667 298.667-298.667-298.667h170.667zM213.333 170.667h597.333v-85.333h-597.333z" />
<glyph unicode="&#xe63f;" glyph-name="keyboard-return" d="M810.667 640v-170.667h-561.92l152.96 152.96-60.373 60.373-256-256 256-256 60.373 60.373-152.96 152.96h647.253v256z" />
<glyph unicode="&#xe640;" glyph-name="keyboard-voice" d="M512 298.667c70.613 0 127.573 57.387 127.573 128l0.427 256c0 70.827-57.173 128-128 128-70.613 0-128-57.173-128-128v-256c0-70.613 57.387-128 128-128zM738.133 426.667c0-128-108.16-217.6-226.133-217.6-117.76 0-226.133 89.6-226.133 217.6h-72.533c0-145.707 116.053-266.027 256-286.72v-139.947h85.333v139.947c139.947 20.693 256 141.013 256 286.72h-72.533z" />
<glyph unicode="&#xe641;" glyph-name="phonelink" d="M170.667 682.667h768v85.333h-768c-47.147 0-85.333-38.187-85.333-85.333v-469.333h-85.333v-128h597.333v128h-426.667v469.333zM981.333 597.334h-256c-23.467 0-42.667-19.2-42.667-42.667v-426.667c0-23.467 19.2-42.667 42.667-42.667h256c23.467 0 42.667 19.2 42.667 42.667v426.667c0 23.467-19.2 42.667-42.667 42.667zM938.667 213.334h-170.667v298.667h170.667v-298.667z" />
<glyph unicode="&#xe642;" glyph-name="phonelink-off" d="M938.667 682.667v85.333h-647.68l85.333-85.333h562.347zM81.92 868.48l-54.4-54.4 77.44-77.44c-11.947-14.72-19.627-33.493-19.627-53.973v-469.333h-85.333v-128h756.48l100.48-100.48 54.187 54.4-829.227 829.227zM170.667 670.934l457.813-457.6h-457.813v457.6zM981.333 597.334h-256c-23.467 0-42.667-19.2-42.667-42.667v-178.347l85.333-85.333v221.013h170.667v-298.667h-93.013l128-128h7.68c23.467 0 42.667 19.2 42.667 42.667v426.667c0 23.467-19.2 42.667-42.667 42.667z" />
<glyph unicode="&#xe643;" glyph-name="looks" d="M512 512c-164.693 0-298.667-133.973-298.667-298.667h85.333c0 117.547 95.787 213.333 213.333 213.333s213.333-95.787 213.333-213.333h85.333c0 164.693-133.973 298.667-298.667 298.667zM512 682.667c-258.773 0-469.333-210.56-469.333-469.333h85.333c0 211.627 172.373 384 384 384s384-172.373 384-384h85.333c0 258.773-210.56 469.333-469.333 469.333z" />
<glyph unicode="&#xe644;" glyph-name="layers" d="M511.787 147.627l-314.667 244.693-69.12-53.76 384-298.667 384 298.667-69.547 53.973-314.667-244.907zM512 256l384 298.667-384 298.667-384-298.667 69.547-53.973 314.453-244.693z" />
<glyph unicode="&#xe645;" glyph-name="local-airport" d="M896 256v85.333l-341.333 213.333v234.667c0 35.413-28.587 64-64 64s-64-28.587-64-64v-234.667l-341.333-213.333v-85.333l341.333 106.667v-234.667l-85.333-64v-64l149.333 42.667 149.333-42.667v64l-85.333 64v234.667l341.333-106.667z" />
<glyph unicode="&#xe646;" glyph-name="hotel" d="M298.667 384c70.613 0 128 57.387 128 128s-57.387 128-128 128-128-57.387-128-128 57.387-128 128-128zM810.667 640h-341.333v-298.667h-341.333v384h-85.333v-640h85.333v128h768v-128h85.333v384c0 94.293-76.373 170.667-170.667 170.667z" />
<glyph unicode="&#xe647;" glyph-name="apps" d="M170.667 597.334h170.667v170.667h-170.667v-170.667zM426.667 85.334h170.667v170.667h-170.667v-170.667zM170.667 85.334h170.667v170.667h-170.667v-170.667zM170.667 341.334h170.667v170.667h-170.667v-170.667zM426.667 341.334h170.667v170.667h-170.667v-170.667zM682.667 768v-170.667h170.667v170.667h-170.667zM426.667 597.334h170.667v170.667h-170.667v-170.667zM682.667 341.334h170.667v170.667h-170.667v-170.667zM682.667 85.334h170.667v170.667h-170.667v-170.667z" />
<glyph unicode="&#xe648;" glyph-name="chevron-left" d="M657.707 622.294l-60.373 60.373-256-256 256-256 60.373 60.373-195.627 195.627z" />
<glyph unicode="&#xe649;" glyph-name="chevron-right" d="M426.667 682.667l-60.373-60.373 195.627-195.627-195.627-195.627 60.373-60.373 256 256z" />
<glyph unicode="&#xe64a;" glyph-name="expand-less" d="M512 597.334l-256-256 60.373-60.373 195.627 195.627 195.627-195.627 60.373 60.373z" />
<glyph unicode="&#xe64b;" glyph-name="expand-more" d="M707.627 572.374l-195.627-195.627-195.627 195.627-60.373-60.373 256-256 256 256z" />
<glyph unicode="&#xe64c;" glyph-name="menu" d="M128 170.667h768v85.333h-768v-85.333zM128 384h768v85.333h-768v-85.333zM128 682.667v-85.333h768v85.333h-768z" />
<glyph unicode="&#xe64d;" glyph-name="more-horiz" d="M256 512c-47.147 0-85.333-38.187-85.333-85.333s38.187-85.333 85.333-85.333 85.333 38.187 85.333 85.333-38.187 85.333-85.333 85.333zM768 512c-47.147 0-85.333-38.187-85.333-85.333s38.187-85.333 85.333-85.333 85.333 38.187 85.333 85.333-38.187 85.333-85.333 85.333zM512 512c-47.147 0-85.333-38.187-85.333-85.333s38.187-85.333 85.333-85.333 85.333 38.187 85.333 85.333-38.187 85.333-85.333 85.333z" />
<glyph unicode="&#xe64e;" glyph-name="more-vert" d="M512 597.334c47.147 0 85.333 38.187 85.333 85.333s-38.187 85.333-85.333 85.333-85.333-38.187-85.333-85.333 38.187-85.333 85.333-85.333zM512 512c-47.147 0-85.333-38.187-85.333-85.333s38.187-85.333 85.333-85.333 85.333 38.187 85.333 85.333-38.187 85.333-85.333 85.333zM512 256c-47.147 0-85.333-38.187-85.333-85.333s38.187-85.333 85.333-85.333 85.333 38.187 85.333 85.333-38.187 85.333-85.333 85.333z" />
<glyph unicode="&#xe64f;" glyph-name="unfold-less" d="M316.373 145.707l60.373-60.373 135.253 135.253 135.253-135.253 60.373 60.373-195.627 195.627-195.627-195.627zM707.627 707.627l-60.373 60.373-135.253-135.253-135.253 135.253-60.373-60.373 195.627-195.627 195.627 195.627z" />
<glyph unicode="&#xe650;" glyph-name="unfold-more" d="M512 689.92l135.253-135.253 60.373 60.373-195.627 195.627-195.627-195.627 60.373-60.373 135.253 135.253zM512 163.414l-135.253 135.253-60.373-60.373 195.627-195.627 195.627 195.627-60.373 60.373-135.253-135.253z" />
<glyph unicode="&#xe651;" glyph-name="bt-audio" d="M607.573 426.24l98.987-98.987c11.947 30.933 18.773 64.427 18.773 99.413 0 34.773-6.613 68.053-18.347 98.773l-99.413-99.2zM833.28 652.16l-53.973-53.973c26.667-51.413 42.027-109.653 42.027-171.733s-15.36-120.107-42.027-171.733l51.2-51.2c41.173 66.133 65.493 143.573 65.493 226.773 0 81.493-23.253 157.227-62.72 221.867zM670.080 609.92l-243.413 243.413h-42.667v-323.627l-195.627 195.627-60.373-60.373 238.293-238.293-238.293-238.293 60.373-60.373 195.627 195.627v-323.627h42.667l243.413 243.413-183.040 183.253 183.040 183.253zM469.333 689.92l80.213-80.213-80.213-80v160.213zM549.547 243.414l-80.213-80v160.427l80.213-80.427z" />
<glyph unicode="&#xe652;" glyph-name="drive-eta" d="M807.253 724.907c-8.747 25.173-32.64 43.093-60.587 43.093h-469.333c-27.947 0-51.84-17.92-60.587-43.093l-88.747-255.573v-341.333c0-23.467 19.2-42.667 42.667-42.667h42.667c23.68 0 42.667 19.2 42.667 42.667v42.667h512v-42.667c0-23.467 19.2-42.667 42.667-42.667h42.667c23.68 0 42.667 19.2 42.667 42.667v341.333l-88.747 255.573zM277.333 298.667c-35.413 0-64 28.587-64 64s28.587 64 64 64 64-28.587 64-64-28.587-64-64-64zM746.667 298.667c-35.413 0-64 28.587-64 64s28.587 64 64 64 64-28.587 64-64-28.587-64-64-64zM213.333 512l64 192h469.333l64-192h-597.333z" />
<glyph unicode="&#xe653;" glyph-name="event-available" d="M705.28 466.774l-45.227 45.227-208.213-208.213-90.453 90.453-45.227-45.227 135.68-135.68 253.44 253.44zM810.667 810.667h-42.667v85.333h-85.333v-85.333h-341.333v85.333h-85.333v-85.333h-42.667c-47.147 0-84.907-38.187-84.907-85.333l-0.427-597.333c0-47.147 38.187-85.333 85.333-85.333h597.333c47.147 0 85.333 38.187 85.333 85.333v597.333c0 47.147-38.187 85.333-85.333 85.333zM810.667 128h-597.333v469.333h597.333v-469.333z" />
<glyph unicode="&#xe654;" glyph-name="event-busy" d="M397.227 213.334l104.107 104.107 104.107-104.107 45.227 45.227-104.107 104.107 104.107 104.107-45.227 45.227-104.107-104.107-104.107 104.107-45.227-45.227 104.107-104.107-104.107-104.107 45.227-45.227zM810.667 810.667h-42.667v85.333h-85.333v-85.333h-341.333v85.333h-85.333v-85.333h-42.667c-47.147 0-84.907-38.187-84.907-85.333l-0.427-597.333c0-47.147 38.187-85.333 85.333-85.333h597.333c47.147 0 85.333 38.187 85.333 85.333v597.333c0 47.147-38.187 85.333-85.333 85.333zM810.667 128h-597.333v469.333h597.333v-469.333z" />
<glyph unicode="&#xe655;" glyph-name="folder-special" d="M853.333 682.667h-341.333l-85.333 85.333h-256c-47.147 0-85.333-38.187-85.333-85.333v-512c0-47.147 38.187-85.333 85.333-85.333h682.667c47.147 0 85.333 38.187 85.333 85.333v426.667c0 47.147-38.187 85.333-85.333 85.333zM579.413 170.667l-152.747 89.387-152.747-89.387 40.32 173.653-134.827 116.693 177.707 15.36 69.547 163.627 69.333-163.627 177.707-15.36-134.827-116.693 40.533-173.653z" />
<glyph unicode="&#xe656;" glyph-name="chart-line" d="M981.248-0.085h-85.248v42.752h-42.752v-42.752h-85.12v42.752h-42.752v-42.752h-85.248v42.752h-42.752v-42.752h-85.248v42.752h-42.752v-42.752h-85.248v42.752h-42.752v-42.752h-187.776l224.853 135.125 111.275 325.205 165.291-290.517 320.299 533.675-73.131 43.947-245.205-408.576-186.709 328.149-162.517-474.795-222.507-133.717v880.256h-85.248v-1024h1024v128h-42.752zM981.248 938.667h42.752v-42.752h-42.752zM853.248 938.667h42.752v-42.752h-42.752zM725.376 938.667h42.752v-42.752h-42.752zM597.376 938.667h42.752v-42.752h-42.752zM469.376 938.667h42.752v-42.752h-42.752zM341.376 938.667h42.752v-42.752h-42.752zM213.376 938.667h42.752v-42.752h-42.752zM85.376 938.667h42.752v-42.752h-42.752zM981.248 810.667h42.752v-42.752h-42.752zM853.248 810.667h42.752v-42.752h-42.752zM725.376 810.667h42.752v-42.752h-42.752zM597.376 810.667h42.752v-42.752h-42.752zM469.376 810.667h42.752v-42.752h-42.752zM341.376 810.667h42.752v-42.752h-42.752zM213.376 810.667h42.752v-42.752h-42.752zM85.376 810.667h42.752v-42.752h-42.752zM981.248 682.795h42.752v-42.752h-42.752zM725.376 682.795h42.752v-42.752h-42.752zM597.376 682.795h42.752v-42.752h-42.752zM341.376 682.795h42.752v-42.752h-42.752zM213.376 682.795h42.752v-42.752h-42.752zM85.376 682.795h42.752v-42.752h-42.752zM981.248 554.795h42.752v-42.752h-42.752zM597.376 554.795h42.752v-42.752h-42.752zM341.376 554.795h42.752v-42.752h-42.752zM213.376 554.795h42.752v-42.752h-42.752zM85.376 554.795h42.752v-42.752h-42.752zM981.248 426.71h42.752v-42.752h-42.752zM853.248 426.71h42.752v-42.752h-42.752zM213.376 426.71h42.752v-42.752h-42.752zM85.376 426.71h42.752v-42.752h-42.752zM981.248 298.71h42.752v-42.752h-42.752zM853.248 298.71h42.752v-42.752h-42.752zM469.376 298.71h42.752v-42.752h-42.752zM213.376 298.71h42.752v-42.752h-42.752zM85.376 298.71h42.752v-42.752h-42.752zM981.248 170.838h42.752v-42.752h-42.752zM853.248 170.838h42.752v-42.752h-42.752zM725.376 170.838h42.752v-42.752h-42.752zM469.376 170.838h42.752v-42.752h-42.752zM85.376 170.838h42.752v-42.752h-42.752z" />
<glyph unicode="&#xe657;" glyph-name="phone-bt" d="M627.413 533.334l97.92 97.92v-161.92h21.333l121.813 121.813-91.733 91.52 91.52 91.52-121.6 121.813h-21.333v-161.92l-97.92 97.92-30.080-30.080 119.253-119.253-119.253-119.253 30.080-30.080zM768 814.294l40.107-40.107-40.107-40.107v80.213zM768 631.254l40.107-40.107-40.107-40.107v80.213zM853.333 277.334c-53.12 0-104.32 8.533-152.32 24.32-14.72 4.693-31.573 1.28-43.307-10.453l-93.867-94.080c-120.96 61.44-219.52 160.213-281.173 280.96l93.867 94.080c11.733 11.733 15.147 28.587 10.453 43.307-15.787 48-24.32 99.413-24.32 152.533 0 23.68-18.987 42.667-42.667 42.667h-149.333c-23.68 0-42.667-18.987-42.667-42.667 0-400.64 324.693-725.333 725.333-725.333 23.68 0 42.667 18.987 42.667 42.667v149.333c0 23.68-18.987 42.667-42.667 42.667z" />
<glyph unicode="&#xe658;" glyph-name="phone-forwarded" d="M768 469.334l213.333 213.333-213.333 213.333v-128h-170.667v-170.667h170.667v-128zM853.333 277.334c-53.12 0-104.32 8.533-152.32 24.32-14.72 4.693-31.573 1.28-43.307-10.453l-93.867-94.080c-120.96 61.44-219.52 160.213-281.173 280.96l93.867 94.080c11.733 11.733 15.147 28.587 10.453 43.307-15.787 48.213-24.32 99.413-24.32 152.533 0 23.68-18.987 42.667-42.667 42.667h-149.333c-23.68 0-42.667-18.987-42.667-42.667 0-400.64 324.693-725.333 725.333-725.333 23.68 0 42.667 18.987 42.667 42.667v149.333c0 23.68-18.987 42.667-42.667 42.667z" />
<glyph unicode="&#xe659;" glyph-name="phone-in-talk" d="M853.333 277.334c-53.12 0-104.32 8.533-152.32 24.32-14.72 4.693-31.573 1.28-43.307-10.453l-93.867-94.080c-120.96 61.44-219.52 160.213-281.173 280.96l93.867 94.080c11.733 11.733 15.147 28.587 10.453 43.307-15.787 48-24.32 99.413-24.32 152.533 0 23.68-18.987 42.667-42.667 42.667h-149.333c-23.68 0-42.667-18.987-42.667-42.667 0-400.64 324.693-725.333 725.333-725.333 23.68 0 42.667 18.987 42.667 42.667v149.333c0 23.68-18.987 42.667-42.667 42.667zM810.667 426.667h85.333c0 212.053-171.947 384-384 384v-85.333c164.907 0 298.667-133.76 298.667-298.667zM640 426.667h85.333c0 117.76-95.573 213.333-213.333 213.333v-85.333c70.613 0 128-57.387 128-128z" />
<glyph unicode="&#xe65a;" glyph-name="phone-locked" d="M853.333 277.334c-53.12 0-104.533 8.533-152.32 24.32-14.72 4.693-31.573 1.28-43.307-10.453l-93.867-94.080c-120.96 61.44-219.52 160.213-281.173 280.96l93.867 94.080c11.733 11.733 15.147 28.587 10.453 43.307-15.787 48-24.32 99.413-24.32 152.533 0 23.68-18.987 42.667-42.667 42.667h-149.333c-23.467 0-42.667-18.987-42.667-42.667 0-400.64 324.693-725.333 725.333-725.333 23.68 0 42.667 18.987 42.667 42.667v149.333c0 23.68-18.987 42.667-42.667 42.667zM853.333 768v21.333c0 58.88-47.787 106.667-106.667 106.667s-106.667-47.787-106.667-106.667v-21.333c-23.68 0-42.667-19.2-42.667-42.667v-170.667c0-23.467 18.987-42.667 42.667-42.667h213.333c23.68 0 42.667 19.2 42.667 42.667v170.667c0 23.467-18.987 42.667-42.667 42.667zM819.2 768h-145.067v21.333c0 40.107 32.427 72.533 72.533 72.533s72.533-32.427 72.533-72.533v-21.333z" />
<glyph unicode="&#xe65b;" glyph-name="phone-missed" d="M277.333 704l234.667-234.667 298.667 298.667-42.667 42.667-256-256-192 192h149.333v64h-256v-256h64v149.333zM1011.413 227.414c-129.92 123.52-305.92 199.253-499.413 199.253s-369.493-75.733-499.413-199.253c-7.893-7.893-12.587-18.56-12.587-30.293s4.693-22.4 12.587-30.080l105.6-105.813c7.68-7.68 18.347-12.587 30.293-12.587 11.52 0 22.187 4.693 29.867 12.16 33.707 31.36 72.107 58.027 113.707 79.147 14.080 7.040 23.893 21.547 23.893 38.4v132.48c61.653 19.84 127.573 30.507 196.053 30.507s134.4-10.667 196.267-30.72v-132.48c0-16.853 9.813-31.36 23.893-38.4 41.6-20.907 80-47.573 113.707-79.147 7.68-7.467 18.133-12.16 29.867-12.16s22.4 4.693 30.293 12.587l105.6 105.813c7.68 7.68 12.587 18.347 12.587 30.080s-4.907 22.613-12.8 30.507z" />
<glyph unicode="&#xe65c;" glyph-name="phone-paused" d="M725.333 810.667h-85.333v-298.667h85.333v298.667zM853.333 277.334c-53.12 0-104.32 8.533-152.32 24.32-14.72 4.693-31.573 1.28-43.307-10.453l-93.867-94.080c-120.96 61.44-219.52 160.213-281.173 280.96l93.867 94.080c11.733 11.733 15.147 28.587 10.453 43.307-15.787 48-24.32 99.413-24.32 152.533 0 23.68-18.987 42.667-42.667 42.667h-149.333c-23.68 0-42.667-18.987-42.667-42.667 0-400.64 324.693-725.333 725.333-725.333 23.68 0 42.667 18.987 42.667 42.667v149.333c0 23.68-18.987 42.667-42.667 42.667zM810.667 810.667v-298.667h85.333v298.667h-85.333z" />
<glyph unicode="&#xe65d;" glyph-name="sd-card" d="M768 853.334h-341.333l-255.147-256-0.853-512c0-46.933 38.4-85.333 85.333-85.333h512c46.933 0 85.333 38.4 85.333 85.333v682.667c0 46.933-38.4 85.333-85.333 85.333zM512 597.334h-85.333v170.667h85.333v-170.667zM640 597.334h-85.333v170.667h85.333v-170.667zM768 597.334h-85.333v170.667h85.333v-170.667z" />
<glyph unicode="&#xe65e;" glyph-name="gamepad" horiz-adv-x="1054" d="M736.448 817.312c-45.312 0-133.312-64-208-64-74.656 0-168 64-208 64-274.656 0-432-738.624-226.656-738.624 173.344 0 196.672 216 433.984 216 192 0 304.672-213.376 432.672-213.376 205.312 0 50.688 736-224 736zM304.416 401.312c-79.52 0-144 64.512-144 144 0 79.52 64.48 144 144 144s144-64.48 144-144c0-79.488-64.448-144-144-144zM686.432 481.312c-17.696 0-32 14.304-32 32s14.304 32 32 32 32-14.304 32-32-14.304-32-32-32zM784.448 385.312c-17.696 0-32 14.304-32 32s14.304 32 32 32 32-14.304 32-32-14.336-32-32-32zM784.448 577.312c-17.696 0-32 14.304-32 32s14.304 32 32 32 32-14.304 32-32-14.336-32-32-32zM880.448 481.312c-17.696 0-32 14.304-32 32s14.304 32 32 32 32-14.304 32-32-14.336-32-32-32zM304.416 625.312c-44.16 0-80-35.808-80-80s35.84-80 80-80c44.192 0 80 35.808 80 80s-35.808 80-80 80z" />
<glyph unicode="&#xe65f;" glyph-name="satellite" horiz-adv-x="1064" d="M0 292.384l356.384-356.384c0 0 85.088 201.952-34.656 321.696-118.432 118.432-321.728 34.688-321.728 34.688zM956 264.064l-180.992-180.992 22.624-22.624 180.992 180.992-22.624 22.624zM1046.496 218.816l-203.616 203.68c-24.992 24.928-65.568 24.928-90.496 0l-17.856-17.856-49.92 49.92 89.504 89.504c24.992 24.992 22.176 68.352-2.816 93.344l-110.304 110.304c-24.992 24.992-65.504 24.992-90.496 0l-81.376-78.528-42.88 42.88 2.912 2.88c24.992 24.992 24.992 65.536 0 90.528l-203.648 203.68c-24.992 24.992-65.504 24.992-90.528 0l-135.744-135.776c-24.992-24.992-24.992-65.536 0-90.528l203.648-203.648c24.992-24.992 65.504-24.992 90.528 0l44.512 44.512 44.096-44.48-81.888-81.888c-24.992-24.992-15.552-164.096-15.552-164.096l55.136-55.136c0 0 139.072-9.44 164.064 15.552l70.848 70.816 49.92-49.92-27.968-27.968c-24.992-24.992-24.992-65.504 0-90.496l203.68-203.616c24.992-24.992 65.504-24.992 90.496 0l135.744 135.744c24.992 25.088 24.992 65.6 0 90.592zM41.856 850.752l135.776 135.776c12.48 12.512 32.736 12.512 45.248 0l-181.024-181.024c-12.512 12.48-12.512 32.768 0 45.248zM64.48 782.88l181.024 181.024 22.624-22.624-181.024-181.024-22.624 22.624zM109.728 737.632l181.024 181.024 22.624-22.656-180.992-180.992-22.656 22.624zM155.008 692.352l180.992 181.024 22.656-22.624-181.024-181.024-22.624 22.624zM200.256 647.104l181.024 181.024 22.624-22.624-181.024-181.024-22.624 22.624zM290.752 601.856c-12.48-12.512-32.736-12.512-45.248 0l181.024 181.024c12.512-12.512 12.512-32.768 0-45.248l-135.776-135.776zM381.056 432.064l-16.96 16.992 233.92 233.92 16.992-16.96-233.952-233.952zM639.2 264.064l135.808 135.808c12.512 12.448 32.736 12.448 45.248 0l-181.056-181.056c-12.512 12.512-12.512 32.736 0 45.248zM1023.872 150.944l-135.744-135.744c-12.512-12.512-32.736-12.512-45.248 0l-135.776 135.776 180.992 180.992-22.624 22.624-181.056-180.992-22.624 22.624 181.056 181.056 180.992-181.056c12.544-12.544 12.544-32.8 0.032-45.28zM1001.248 218.816l-180.992-180.992 22.624-22.624 180.992 180.992-22.624 22.624zM910.752 309.312l-180.992-180.992 22.624-22.624 180.992 180.992-22.624 22.624z" />
<glyph unicode="&#xe660;" glyph-name="lock" d="M128-32v512h96v160c0 141.376 114.592 256 256 256h32c141.376 0 256-114.624 256-256v-160h96v-512h-736zM471.808 230.816l-23.808-166.816h96l-23.84 166.816c23.328 9.536 39.84 32.416 39.84 59.2 0 35.328-28.672 64-64 64-35.36 0-64-28.672-64-64 0-26.784 16.48-49.664 39.808-59.2zM672 624c0 97.216-78.816 176-176 176-97.216 0-176-78.784-176-176v-144h352v144z" />
<glyph unicode="&#xe661;" glyph-name="unlock" d="M928 480v144c0 97.216-78.816 176-176 176-97.216 0-176-78.784-176-176v-146.272h160v-509.728h-736v512h480v160c0 141.376 114.592 256 256 256h32c141.376 0 256-114.624 256-256v-160h-96zM368 353.984c-35.36 0-64-28.672-64-64 0-26.784 16.48-49.664 39.808-59.2l-23.808-166.784h96l-23.84 166.816c23.328 9.536 39.84 32.416 39.84 59.2 0 35.328-28.672 63.968-64 63.968z" />
<glyph unicode="&#xe662;" glyph-name="pin" d="M607.136 390.336l-249.408 144c-30.592 17.696-69.76 7.2-87.424-23.392-17.664-30.624-7.168-69.76 23.424-87.424l249.376-144c30.624-17.696 69.76-7.2 87.424 23.424 17.728 30.592 7.232 69.728-23.392 87.392zM401.44 546.048l193.984-112 65.984 183.616-133.952 77.312-126.016-148.928zM258.432 74.368l185.568 225.408-83.136 48-102.432-273.408zM741.568 719.2l-166.24 96c-22.976 13.248-52.32 5.408-65.568-17.568-13.28-22.976-5.376-52.32 17.568-65.568l166.272-96c22.976-13.248 52.32-5.408 65.568 17.568s5.376 52.32-17.6 65.568z" />
<glyph unicode="&#xe663;" glyph-name="discout" d="M993.984 448c0-68-39.264-125.664-97.6-148.544v-74.56c0-17.6-14.272-31.872-31.84-31.872h-737.056c-17.632 0-31.872 14.272-31.872 31.872v74.56c-58.368 22.88-97.6 80.544-97.6 148.544s39.264 125.664 97.632 148.544v74.56c0 17.632 14.24 31.872 31.872 31.872h737.056c17.568 0 31.84-14.24 31.84-31.872v-74.56c58.336-22.88 97.568-80.544 97.568-148.544zM382.464 448h-127.488v-31.872h127.488v31.872zM533.824 556.672c-8.992 9.888-21.344 14.816-37.024 14.816-15.584 0-27.872-4.928-36.832-14.816-8.992-9.856-13.504-25.024-13.504-45.504 0-20.576 4.512-35.776 13.504-45.664 8.96-9.856 15.392-14.784 31.328-14.784 15.36 0 33.568 4.928 42.56 14.784 8.96 9.888 13.472 25.088 13.472 45.664-0.032 20.48-4.544 35.68-13.504 45.504zM642.24 576.48l-163.52-256.704h32.384l162.72 256.704h-31.584zM693.152 429.216c-8.96 9.856-21.344 14.784-37.024 14.784-15.552 0-27.872-4.928-36.864-14.784-8.96-9.888-13.44-25.024-13.44-45.504 0-20.576 4.48-35.808 13.44-45.664 8.992-9.888 21.44-14.816 37.376-14.816 15.36 0 27.552 4.928 36.544 14.816 8.96 9.856 13.472 25.088 13.472 45.664-0.032 20.48-4.544 35.616-13.504 45.504zM655.84 347.904c-4.608 0-8.192 1.952-10.784 5.792-3.424 5.024-5.152 15.008-5.152 29.952s1.728 24.96 5.152 30.080c2.496 3.744 6.080 5.664 10.784 5.664s8.352-1.92 10.944-5.664c3.328-5.12 4.992-15.168 4.992-30.080s-1.728-24.96-5.152-30.080c-2.496-3.776-6.080-5.664-10.784-5.664zM496.512 475.36c-4.608 0-8.192 1.952-10.784 5.824-3.424 5.024-5.152 15.008-5.152 29.952s1.728 24.96 5.152 30.080c2.496 3.744 6.080 5.632 10.784 5.632s8.32-1.888 10.944-5.632c3.328-5.12 4.992-15.168 4.992-30.080s-1.728-24.96-5.152-30.080c-2.528-3.776-6.112-5.696-10.784-5.696z" />
<glyph unicode="&#xe664;" glyph-name="profile" d="M896 672h-62.656v94.016l-129.344 1.984 0.672-96h-388.672l2.656 96-126.656-1.984v-96l-64 1.984c-35.328 0-64-28.672-64-64v-448c0-35.328 28.672-64 64-64h768c35.328 0 64 28.672 64 64v448c0 35.328-28.672 64-64 64zM736 736h64v-128h-64v128zM320 518.016c38.656 0 70.016-41.184 70.016-92s-31.36-92-70.016-92-70.016 41.184-70.016 92 31.36 92 70.016 92zM224 736h64v-128h-64v128zM181.344 225.664c0 0 7.584 60.864 24.832 72.352 17.216 11.488 66.88 19.136 66.88 19.136s32.192-34.4 45.888-34.4c13.664 0 45.856 34.4 45.856 34.4s49.664-7.616 66.912-19.136c20.256-13.504 25.312-72.352 25.312-72.352h-275.68zM832 256h-288v32h288v-32zM832 320h-288v32h288v-32zM832 384h-288v32h288v-32zM832 448h-288v32h288v-32z" />
<glyph unicode="&#xe665;" glyph-name="dollar" d="M0 160v576h1024v-576h-1024zM64 673.984v-449.984h896v449.984h-896zM672 448c0 106.016-71.616 192-160 192h416v-384h-416c88.384 0 160 85.984 160 192zM800 384c26.496 0 48 28.672 48 64s-21.504 64-48 64-48-28.672-48-64 21.504-64 48-64zM579.776 528.704c-0.48-1.76-1.152-3.008-1.984-3.808-0.864-0.8-2.016-1.184-3.488-1.184s-3.776 0.896-7.008 2.752c-3.2 1.888-7.136 3.872-11.776 6.048-4.672 2.176-10.048 4.16-16.192 5.984-6.144 1.792-12.864 2.656-20.192 2.656-5.76 0-10.752-0.672-15.008-2.080-4.256-1.376-7.84-3.328-10.688-5.76-2.88-2.464-4.992-5.44-6.4-8.864-1.376-3.424-2.080-7.104-2.080-10.944 0-5.76 1.568-10.72 4.704-14.912s7.328-7.936 12.608-11.2c5.28-3.296 11.232-6.336 17.92-9.184 6.624-2.88 13.44-5.92 20.384-9.088 6.944-3.232 13.728-6.848 20.384-10.912 6.688-4.064 12.64-8.928 17.824-14.592s9.376-12.32 12.608-19.968c3.2-7.68 4.768-16.672 4.768-27.104 0-13.6-2.496-25.504-7.552-35.776-5.088-10.24-11.936-18.816-20.64-25.664-8.672-6.88-18.784-12.032-30.368-15.488-1.472-0.448-3.072-0.64-4.576-0.992v-34.944h-31.456v30.816c-0.416 0-0.768-0.064-1.152-0.064-8.928 0-17.248 0.704-24.896 2.144-7.68 1.472-14.432 3.232-20.288 5.248-5.888 2.048-10.752 4.192-14.688 6.432s-6.752 4.224-8.48 5.952c-1.728 1.728-2.976 4.224-3.712 7.488-0.736 3.296-1.12 7.968-1.12 14.112 0 4.128 0.128 7.584 0.416 10.4s0.704 5.056 1.312 6.816 1.376 2.976 2.4 3.712c0.992 0.704 2.144 1.088 3.488 1.088 1.856 0 4.48-1.088 7.904-3.296 3.392-2.208 7.776-4.64 13.088-7.296 5.344-2.688 11.68-5.088 19.104-7.328 7.392-2.176 15.968-3.296 25.696-3.296 6.4 0 12.128 0.768 17.184 2.304s9.376 3.68 12.896 6.496 6.208 6.272 8.096 10.4c1.888 4.16 2.816 8.736 2.816 13.856 0 5.856-1.632 10.88-4.8 15.104-3.2 4.192-7.36 7.904-12.512 11.2-5.12 3.264-10.944 6.304-17.472 9.184s-13.248 5.92-20.192 9.088c-6.912 3.2-13.664 6.816-20.192 10.912-6.528 4.064-12.352 8.896-17.472 14.56s-9.312 12.384-12.48 20.096c-3.2 7.712-4.8 16.992-4.8 27.776 0 12.416 2.304 23.296 6.88 32.672 4.608 9.376 10.784 17.184 18.592 23.36s16.992 10.816 27.584 13.888c5.44 1.6 11.072 2.72 16.832 3.488v33.088h31.456v-33.088c1.248-0.16 2.496-0.096 3.744-0.288 6.112-0.928 11.872-2.176 17.184-3.776 5.344-1.568 10.048-3.328 14.208-5.344 4.128-1.984 6.848-3.616 8.192-4.96 1.344-1.312 2.208-2.432 2.72-3.36 0.448-0.928 0.832-2.176 1.184-3.712 0.32-1.536 0.576-3.456 0.672-5.824 0.128-2.304 0.192-5.216 0.192-8.672 0-3.872-0.096-7.168-0.288-9.856-0.288-2.528-0.608-4.768-1.088-6.496zM352 448c0-106.016 71.616-192 160-192h-416v384h416c-88.384 0-160-85.984-160-192zM224 512c-26.528 0-48-28.672-48-64s21.472-64 48-64c26.496 0 48 28.672 48 64s-21.504 64-48 64z" />
<glyph unicode="&#xe666;" glyph-name="dollars" horiz-adv-x="1216" d="M1152.064 223.68l1.824 546.848-993.6-0.608-0.032 62.72h1055.744v-608.992l-63.936 0.032zM1119.84 127.456l-63.904 0.064 1.824 546.848-993.6-0.64-0.032 62.72h1055.744v-608.992zM1025.696 63.36h-1025.696v576.96h1025.696v-576.96zM961.568 578.208h-897.472v-450.752h897.44v450.752zM865.44 175.52c0-5.664 1.408-10.944 3.232-16h-355.84c88.512 0 160.288 86.080 160.288 192.32s-71.776 192.32-160.288 192.32h355.808c-1.824-5.056-3.232-10.336-3.232-16.032 0-26.56 21.504-48.064 48.064-48.064 5.696 0 10.976 1.408 16.032 3.232v-262.88c-5.056 1.792-10.336 3.232-16.032 3.232-26.528-0.032-48.032-21.568-48.032-48.128zM801.312 418.592c-26.56 0-48.064-28.672-48.064-64.096s21.504-64.096 48.064-64.096 48.064 28.672 48.064 64.096-21.504 64.096-48.064 64.096zM579.936 467.392c0.48-0.928 0.864-2.176 1.184-3.712 0.352-1.536 0.576-3.488 0.672-5.824 0.16-2.336 0.224-5.248 0.224-8.736 0-3.872-0.096-7.168-0.288-9.824-0.224-2.688-0.576-4.896-0.992-6.624-0.512-1.76-1.152-3.040-1.984-3.808-0.864-0.8-2.048-1.216-3.52-1.216s-3.776 0.928-7.008 2.784c-3.232 1.888-7.168 3.872-11.808 6.048s-10.080 4.192-16.224 5.984-12.864 2.688-20.224 2.688c-5.76 0-10.752-0.672-15.008-2.080-4.288-1.408-7.872-3.328-10.72-5.792-2.88-2.464-5.024-5.44-6.4-8.864-1.408-3.456-2.112-7.136-2.112-10.976 0-5.76 1.568-10.72 4.704-14.944 3.136-4.192 7.328-7.936 12.64-11.2 5.28-3.296 11.264-6.336 17.92-9.216s13.472-5.92 20.416-9.088c6.944-3.232 13.76-6.848 20.448-10.944 6.688-4.064 12.64-8.928 17.824-14.592 5.216-5.696 9.44-12.352 12.64-20.032s4.8-16.704 4.8-27.136c0-13.6-2.56-25.568-7.616-35.808-5.056-10.272-11.936-18.88-20.64-25.76s-18.816-12.032-30.432-15.488c-1.472-0.448-3.072-0.64-4.576-0.992v-35.008h-31.52v30.88c-0.416 0-0.768-0.096-1.184-0.096-8.928 0-17.248 0.736-24.928 2.176-7.68 1.472-14.464 3.232-20.32 5.248-5.888 2.048-10.784 4.224-14.72 6.464-3.968 2.24-6.784 4.224-8.512 5.952s-2.976 4.224-3.712 7.488-1.12 8-1.12 14.144c0 4.128 0.128 7.616 0.416 10.4 0.256 2.816 0.704 5.088 1.312 6.848 0.608 1.728 1.408 2.976 2.4 3.712 0.992 0.704 2.176 1.088 3.488 1.088 1.888 0 4.512-1.088 7.936-3.328 3.392-2.176 7.776-4.64 13.12-7.296s11.712-5.088 19.136-7.296c7.392-2.208 16-3.328 25.728-3.328 6.4 0 12.16 0.768 17.216 2.304 5.088 1.536 9.376 3.712 12.928 6.496 3.52 2.816 6.208 6.304 8.096 10.432 1.888 4.16 2.816 8.768 2.816 13.856 0 5.888-1.632 10.944-4.8 15.136-3.2 4.224-7.36 7.936-12.512 11.232-5.152 3.264-10.976 6.336-17.504 9.184-6.56 2.88-13.28 5.92-20.224 9.12s-13.696 6.848-20.224 10.912c-6.528 4.064-12.384 8.928-17.504 14.624-5.12 5.664-9.312 12.384-12.512 20.096-3.2 7.744-4.8 17.024-4.8 27.84 0 12.416 2.304 23.328 6.912 32.704 4.608 9.408 10.816 17.216 18.624 23.424 7.808 6.176 17.024 10.848 27.616 13.92 5.44 1.568 11.072 2.72 16.864 3.488v33.12h31.52v-33.12c1.248-0.16 2.496-0.096 3.744-0.288 6.144-0.928 11.904-2.176 17.248-3.776 5.312-1.6 10.048-3.36 14.176-5.376 4.16-1.984 6.88-3.616 8.256-4.96 1.248-1.184 2.144-2.304 2.624-3.264zM352.576 351.84c0-106.208 71.744-192.32 160.256-192.32h-355.808c1.792 5.056 3.232 10.336 3.232 16 0 26.56-21.536 48.096-48.064 48.096-5.696 0-10.976-1.44-16.032-3.232v262.88c5.056-1.824 10.336-3.232 16.032-3.232 26.56 0 48.064 21.504 48.064 48.064 0 5.696-1.44 10.976-3.232 16.032h355.808c-88.512 0.032-160.256-86.080-160.256-192.288zM224.352 418.592c-26.56 0-48.064-28.672-48.064-64.096s21.536-64.096 48.064-64.096c26.56 0 48.064 28.672 48.064 64.096s-21.504 64.096-48.064 64.096z" />
<glyph unicode="&#xe667;" glyph-name="male" d="M540.864 767.872h292l-0.64-295.328-100.128 100.096-94.368-94.368c21.184-37.248 33.376-80.224 33.376-126.112 0-141.376-114.56-256-256-256-141.376 0-256 114.624-256 256s114.624 256 256 256c48.8 0 94.272-13.92 133.12-37.632l93.376 94.592-100.736 102.752zM287.136 352.128c0-70.688 57.312-128 128-128s128 57.312 128 128-57.312 128-128 128-128-57.312-128-128z" />
<glyph unicode="&#xe668;" glyph-name="female" d="M577.248 360.928v-105.376h127.872v-127.872h-127.872v-127.872h-129.824v127.872h-127.84v127.872h127.84v105.76c-109.92 28.64-191.136 128.288-191.136 247.136 0 141.216 114.496 255.712 255.712 255.712 141.248 0 255.68-114.496 255.68-255.712 0-119.328-79.872-219.264-190.432-247.52zM512 736.288c-70.624 0-127.872-57.216-127.872-127.84 0-70.592 57.248-127.84 127.872-127.84s127.872 57.248 127.872 127.84c0 70.624-57.248 127.84-127.872 127.84z" />
<glyph unicode="&#xe669;" glyph-name="piano" d="M0 64v736h992v-736h-992zM192 384h-32v384h-128v-672h160v288zM384 384h-32v384h-96v-384h-32v-288h160v288zM576 384h-32v384h-96v-384h-32v-288h160v288zM640 768v-384h-32v-288h160v288h-32v384h-96zM960 768h-128v-384h-32v-288h160v672z" />
<glyph unicode="&#xe66a;" glyph-name="anchor" d="M927.968 348.96l-36.352-247.328-73.568 71.36c-58.272-49.248-166.336-116.256-323.328-116.256-157.92 0-267.136 65.376-325.248 112.224l-67.136-65.12-38.336 245.088 252.576-37.184-69.6-67.552c48.832-36.256 125.44-79.968 201.728-79.968l-0.224 403.488c-55.712 19.392-95.808 70.624-95.808 131.36 0 77.376 64.608 140.096 144.32 140.096 79.68 0 144.32-62.72 144.32-140.096 0-61.664-41.344-113.44-98.368-132.128 0.352-78.72 1.632-404.224-0.128-404.224 72.96 0 148.288 47.488 197.344 85.888l-65.024 63.136 252.832 37.216zM571.392 701.344c0 39.872-33.312 72.224-74.4 72.224s-74.432-32.352-74.432-72.224c0-39.904 33.344-72.256 74.432-72.256s74.4 32.352 74.4 72.256z" />
<glyph unicode="&#xe66b;" glyph-name="chevron-thin-down" d="M891.802 660.019c13.926 13.722 36.301 13.722 50.125 0s13.875-35.891 0-49.613l-404.89-400.896c-13.824-13.722-36.198-13.722-50.125 0l-404.89 400.896c-13.824 13.722-13.824 35.891 0 49.613 13.875 13.722 36.301 13.722 50.125 0l379.853-365.619 379.802 365.619z" />
<glyph unicode="&#xe66c;" glyph-name="sunrise" d="M355.23 384c14.876 73.042 79.376 128 156.792 128 77.418 0 141.916-54.958 156.752-128h64c-15.668 108.25-108.168 192-220.752 192-112.542 0-205.082-83.75-220.75-192h63.958zM512.022 640c17.666 0 32 14.334 32 32v64c0 17.666-14.334 32-32 32-17.664 0-32-14.334-32-32v-64c0-17.666 14.336-32 32-32zM806.146 646.166c-12.498 12.5-32.748 12.5-45.25 0l-45.25-45.25c-12.498-12.5-12.498-32.75 0-45.25 12.502-12.5 32.752-12.5 45.25 0l45.25 45.25c12.5 12.5 12.5 32.75 0 45.25zM308.354 600.916l-45.25 45.25c-12.498 12.5-32.746 12.5-45.25 0-12.498-12.5-12.498-32.75 0-45.25l45.25-45.25c12.504-12.5 32.752-12.5 45.25 0 12.504 12.5 12.504 32.75 0 45.25zM704.022 320h-384c-17.664 0-32-14.334-32-32s14.336-32 32-32h384c17.666 0 32 14.334 32 32s-14.334 32-32 32zM640.022 192h-256c-17.664 0-32-14.334-32-32s14.336-32 32-32h256c17.666 0 32 14.334 32 32s-14.334 32-32 32z" />
<glyph unicode="&#xe66d;" glyph-name="sun" d="M512 672c-123.5 0-224-100.5-224-224s100.5-224 224-224 224 100.5 224 224c0 123.5-100.5 224-224 224zM512 288c-88.376 0-160 71.624-160 160s71.624 160 160 160 160-71.624 160-160-71.624-160-160-160zM512 736c17.666 0 32 14.334 32 32v64c0 17.666-14.334 32-32 32s-32-14.334-32-32v-64c0-17.666 14.334-32 32-32zM512 160c-17.666 0-32-14.334-32-32v-64c0-17.666 14.334-32 32-32s32 14.334 32 32v64c0 17.666-14.334 32-32 32zM760.876 651.666l45.25 45.25c12.5 12.5 12.5 32.75 0 45.25s-32.75 12.5-45.25 0l-45.25-45.25c-12.5-12.5-12.5-32.75 0-45.25 12.498-12.5 32.75-12.5 45.25 0zM263.124 244.332l-45.25-45.25c-12.5-12.498-12.5-32.748 0-45.248s32.75-12.5 45.25 0l45.25 45.248c12.5 12.542 12.5 32.752 0 45.25-12.498 12.502-32.75 12.544-45.25 0zM224 448c0 17.666-14.334 32-32 32h-64c-17.666 0-32-14.334-32-32s14.334-32 32-32h64c17.666 0 32 14.334 32 32zM896 480h-64c-17.666 0-32-14.334-32-32s14.334-32 32-32h64c17.666 0 32 14.334 32 32s-14.334 32-32 32zM263.082 651.666c12.502-12.5 32.752-12.5 45.25 0 12.502 12.5 12.502 32.75 0 45.25l-45.25 45.25c-12.5 12.5-32.748 12.5-45.25 0-12.5-12.5-12.5-32.75 0-45.25l45.25-45.25zM760.918 244.376c-12.542 12.5-32.752 12.5-45.25 0-12.502-12.5-12.542-32.75 0-45.25l45.25-45.25c12.498-12.5 32.748-12.5 45.248 0s12.5 32.748 0 45.25l-45.248 45.25z" />
<glyph unicode="&#xe66e;" glyph-name="moon" d="M699.704 273.7c-99.752-99.832-262.166-99.832-362 0-99.832 99.834-99.832 262.25 0 362.042 26.418 26.374 58.624 46.5 95.664 59.624 11.668 4.084 24.586 1.124 33.25-7.584 8.752-8.75 11.71-21.666 7.586-33.25-25.084-70.75-8-147.332 44.498-199.834 52.418-52.456 129.002-69.5 199.834-44.5 11.584 4.124 24.542 1.166 33.25-7.584 8.752-8.666 11.668-21.624 7.542-33.25-13.042-37.040-33.208-69.246-59.624-95.664zM382.954 590.492c-74.876-74.876-74.876-196.708 0-271.542 80-80.042 216.25-72.834 286 16.334-71.918-4.5-142.75 21.458-195.5 74.168-52.75 52.708-78.666 123.542-74.168 195.458-5.748-4.502-11.208-9.294-16.332-14.418z" />
<glyph unicode="&#xe66f;" glyph-name="sun3" d="M542 706c17.666 0 32 14.334 32 32v64c0 17.666-14.334 32-32 32s-32-14.334-32-32v-64c0-17.666 14.334-32 32-32zM542 130c-17.666 0-32-14.334-32-32v-64c0-17.666 14.334-32 32-32s32 14.334 32 32v64c0 17.666-14.334 32-32 32zM293.124 214.332l-45.25-45.25c-12.5-12.498-12.5-32.748 0-45.248s32.75-12.5 45.25 0l45.25 45.248c12.5 12.542 12.5 32.752 0 45.25-12.498 12.502-32.75 12.544-45.25 0zM254 418c0 17.666-14.334 32-32 32h-64c-17.666 0-32-14.334-32-32s14.334-32 32-32h64c17.666 0 32 14.334 32 32zM293.082 621.666c12.502-12.5 32.752-12.5 45.25 0 12.502 12.5 12.502 32.75 0 45.25l-45.25 45.25c-12.5 12.5-32.748 12.5-45.25 0-12.5-12.5-12.5-32.75 0-45.25l45.25-45.25zM670 642c-22.376 0-43.624-4.334-64-10.416-20.376 6.084-41.624 10.416-64 10.416-123.5 0-224-100.5-224-224s100.5-224 224-224c22.376 0 43.624 4.332 64 10.418 20.376-6.086 41.624-10.418 64-10.418 123.5 0 224 100.5 224 224s-100.5 224-224 224zM510.458 261.166c-73.292 14.666-128.458 79.252-128.458 156.834 0 77.584 55.166 142.166 128.458 156.834-39.79-40.458-64.458-95.75-64.458-156.834s24.668-116.376 64.458-156.834z" />
<glyph unicode="&#xe670;" glyph-name="windy" d="M990 514h-163.25c-16.126 143.584-136.874 256-284.75 256-99.624 0-187.5-50.916-239.25-128h-208.75c-17.666 0-32-14.334-32-32s14.334-32 32-32h177.666c-7.248-20.416-11.958-41.792-14.416-64h-99.25c-17.666 0-32-14.334-32-32s14.334-32 32-32h99.25c2.458-22.168 7.168-43.624 14.416-64h-171.834c-20.914 0-37.832-14.334-37.832-32s16.918-32 37.832-32h202.918c51.75-77.124 139.624-128 239.25-128 99.624 0 187.5 50.876 239.248 128h74.92c20.914 0 37.832 14.334 37.832 32s-16.918 32-37.832 32h-43.834c7.248 20.376 11.916 41.832 14.416 64h163.25c17.666 0 32 14.334 32 32s-14.334 32-32 32zM340.458 578h201.542c17.666 0 32 14.334 32 32s-14.334 32-32 32h-156.292c40.418 39.458 95.458 64 156.292 64 112.582 0 205.084-83.75 220.75-192h-441.5c3.25 22.624 9.668 44.084 19.208 64zM542 258c-60.834 0-115.876 24.582-156.292 64h312.542c-40.374-39.418-95.416-64-156.25-64zM743.5 386h-403.042c-9.54 19.916-15.958 41.376-19.208 64h441.5c-3.25-22.624-9.668-44.084-19.25-64z" />
<glyph unicode="&#xe671;" glyph-name="wind" d="M862 576c-53 0-96-43-96-96 0-11.292 2.334-21.916 5.876-32h-613.876c-17.666 0-32-14.334-32-32s14.334-32 32-32h704c53 0 96 43 96 96s-43 96-96 96zM158 512h384c53 0 96 43 96 96s-43 96-96 96-96-43-96-96c0-11.292 2.334-21.916 5.876-32h-293.876c-17.666 0-32-14.334-32-32s14.334-32 32-32zM670 320c-1.876 0-3.668-0.416-5.582-0.582-1.25 0.082-2.292 0.582-3.542 0.582h-493.708c-22.75 0-41.168-14.334-41.168-32s18.418-32 41.168-32h412.708c-3.542-10.084-5.876-20.752-5.876-32 0-53 43-96 96-96s96 43 96 96-43 96-96 96z" />
<glyph unicode="&#xe672;" glyph-name="snowflake" d="M765.744 375.5l-65.25 37.668c2.084 11.332 3.5 22.916 3.5 34.832 0 11.958-1.416 23.584-3.584 34.916l65.25 37.708c30.666 17.75 41.084 56.876 23.458 87.376-17.708 30.624-56.75 41.124-87.376 23.5l-65.876-38.042c-17.624 15-37.708 26.834-59.876 34.708v75.834c0 35.334-28.624 64-64 64-35.332 0-64-28.666-64-64v-75.792c-22.166-7.876-42.25-19.71-59.874-34.708l-65.752 37.958c-30.624 17.666-69.792 7.208-87.498-23.416-17.626-30.584-7.124-69.708 23.498-87.376l65.126-37.626c-2.124-11.376-3.502-23.042-3.502-35.042 0-11.916 1.376-23.542 3.502-34.876l-65.168-37.624c-30.668-17.668-41.168-56.876-23.458-87.5 17.622-30.5 56.79-41 87.458-23.376l65.666 37.958c17.626-15 37.75-26.916 60-34.834v-75.746c0-35.376 28.668-64 64-64 35.376 0 64 28.624 64 64v75.834c22.25 7.916 42.376 19.75 59.916 34.79l65.834-37.998c30.624-17.624 69.752-7.124 87.376 23.376 17.714 30.622 7.256 69.748-23.37 87.498zM447.994 448c0 35.334 28.624 64 64 64 35.334 0 64-28.666 64-64 0-35.332-28.666-64-64-64-35.374 0-64 28.668-64 64z" />
<glyph unicode="&#xe673;" glyph-name="cloudy" d="M416 832c17.666 0 32 14.334 32 32v64c0 17.666-14.334 32-32 32s-32-14.334-32-32v-64c0-17.666 14.334-32 32-32zM664.876 747.666l45.25 45.25c12.498 12.5 12.498 32.75 0 45.25-12.5 12.5-32.75 12.5-45.25 0l-45.25-45.25c-12.5-12.5-12.5-32.75 0-45.25 12.498-12.5 32.75-12.5 45.25 0zM32 512h64c17.666 0 32 14.334 32 32s-14.334 32-32 32h-64c-17.666 0-32-14.334-32-32s14.334-32 32-32zM704 544c0-17.666 14.334-32 32-32h64c17.666 0 32 14.334 32 32s-14.334 32-32 32h-64c-17.666 0-32-14.334-32-32zM167.082 747.666c12.502-12.5 32.752-12.5 45.25 0 12.502 12.5 12.502 32.75 0 45.25l-45.25 45.25c-12.5 12.5-32.748 12.5-45.25 0-12.5-12.5-12.5-32.75 0-45.25l45.25-45.25zM800 448c-10.624 0-21.124-0.75-31.584-2.25-33.542 45.75-78.248 80.666-128.916 103-2.582 121.25-101.624 219.25-223.5 219.25-123.5 0-224-100.5-224-224 0-34.876 8.668-67.5 23-96.876-119.25-4.874-215-102.748-215-223.124 0-123.5 100.5-224 224-224 27.376 0 54.168 5 79.418 14.666 57.914-50.5 131.582-78.666 208.582-78.666 77.084 0 150.666 28.166 208.582 78.666 25.25-9.666 52.042-14.666 79.418-14.666 123.5 0 224 100.5 224 224s-100.5 224-224 224zM416 704c79.624 0 145.124-58.334 157.416-134.5-20.042 4-40.498 6.5-61.416 6.5-91.876 0-177-39.624-236.75-106.5-11.874 22.334-19.25 47.416-19.25 74.5 0 88.376 71.624 160 160 160zM800 64c-34.25 0-65.832 11-91.876 29.334-46.956-56.584-116.876-93.334-196.124-93.334-79.25 0-149.168 36.75-196.124 93.334-26-18.334-57.626-29.334-91.876-29.334-88.376 0-160 71.624-160 160s71.624 160 160 160c15.5 0 30.124-2.916 44.25-7.082 5.624-1.584 11.334-2.834 16.624-5.042 8.75 17.124 19.75 32.792 31.958 47.5 46.752 56.248 116.292 92.624 195.168 92.624 20.25 0 39.668-2.916 58.5-7.418 21.124-4.998 41.084-12.582 59.668-22.582 46.582-24.75 84.832-63.084 108.914-110.126 18.794 7.75 39.336 12.126 60.918 12.126 88.376 0 160-71.624 160-160s-71.624-160-160-160z" />
<glyph unicode="&#xe674;" glyph-name="cloud2" d="M870.124 435.668c9.75 7.25 19.624 14.376 28.458 23.208 26.416 26.458 46.542 58.666 59.584 95.708 4.166 11.584 1.208 24.584-7.544 33.25-8.708 8.75-21.624 11.708-33.246 7.584-70.792-25-147.376-8-199.792 44.5-52.5 52.502-69.584 129.042-44.5 199.792 4.084 11.626 1.166 24.542-7.584 33.292-8.666 8.666-21.624 11.668-33.25 7.582-37.084-13.164-69.25-33.246-95.668-59.664-67.082-67-87.958-162-64.958-247.584-86.5-11.042-164.25-57-216.042-127.586-10.458 1.5-20.958 2.25-31.584 2.25-123.5 0-224-100.5-224-224.002 0-123.498 100.5-223.998 224-223.998 27.376 0 54.168 5 79.418 14.668 57.914-50.5 131.582-78.668 208.582-78.668 77.084 0 150.666 28.168 208.582 78.668 25.25-9.668 52.042-14.668 79.418-14.668 123.5 0 224 100.5 224 223.998 0.002 98.878-64.832 182.044-153.874 211.67zM581.832 775.668c5.084 5.166 10.542 9.958 16.292 14.458-4.5-71.958 21.458-142.75 74.208-195.458 52.752-52.75 123.542-78.666 195.502-74.208-27.584-35.168-65.584-57.042-106.252-66.376-54.75 69.5-135.208 113.25-223.916 120.374-24.542 67.918-10.166 146.876 44.166 201.21zM800 64c-34.25 0-65.832 11-91.876 29.334-46.958-56.584-116.876-93.334-196.124-93.334-79.25 0-149.168 36.75-196.124 93.334-26-18.334-57.624-29.334-91.876-29.334-88.376 0-160 71.624-160 159.998 0 88.376 71.624 160 160 160 21.624 0 42.124-4.376 60.876-12.124 40.376 78.71 119.5 133.792 212.624 139.086 4.876 0.29 9.624 1.042 14.5 1.042 25.832 0 50.624-4.042 74-11.166 31.582-9.668 60.376-25.416 85.376-45.708 23.876-19.376 43.876-43.124 59.624-69.792 2.666-4.5 5.668-8.75 8.082-13.458 18.792 7.75 39.336 12.124 60.918 12.124 88.376 0 160-71.624 160-160s-71.624-160.002-160-160.002z" />
<glyph unicode="&#xe675;" glyph-name="weather" d="M512 770c17.666 0 32 14.334 32 32v64c0 17.666-14.334 32-32 32s-32-14.334-32-32v-64c0-17.666 14.334-32 32-32zM760.876 685.666l45.25 45.25c12.498 12.5 12.498 32.75 0 45.25-12.5 12.5-32.75 12.5-45.25 0l-45.25-45.25c-12.5-12.5-12.5-32.75 0-45.25s32.75-12.5 45.25 0zM128 450h64c17.666 0 32 14.334 32 32s-14.334 32-32 32h-64c-17.666 0-32-14.334-32-32s14.334-32 32-32zM800 482c0-17.666 14.334-32 32-32h64c17.666 0 32 14.334 32 32s-14.334 32-32 32h-64c-17.666 0-32-14.334-32-32zM263.082 685.666c12.502-12.5 32.752-12.5 45.25 0 12.502 12.5 12.502 32.75 0 45.25l-45.25 45.25c-12.5 12.5-32.748 12.5-45.25 0-12.5-12.5-12.5-32.75 0-45.25l45.25-45.25zM291.25 450h64c-2.124 10.334-3.25 21.042-3.25 32 0 88.376 71.624 160 160 160s160-71.624 160-160c0-10.958-1.124-21.666-3.25-32h64c1.584 10.542 3.25 21.042 3.25 32 0 123.5-100.5 224-224 224s-224-100.5-224-224c0-10.958 1.75-21.458 3.25-32zM896 386h-768c-17.666 0-32-14.334-32-32s14.334-32 32-32h768c17.666 0 32 14.334 32 32s-14.334 32-32 32zM896 258h-768c-17.666 0-32-14.334-32-32s14.334-32 32-32h768c17.666 0 32 14.334 32 32s-14.334 32-32 32zM896 130h-768c-17.666 0-32-14.334-32-32s14.334-32 32-32h768c17.666 0 32 14.334 32 32s-14.334 32-32 32z" />
<glyph unicode="&#xe676;" glyph-name="weather2" d="M128 321.998h768c17.666 0 32 14.334 32 32s-14.334 32-32 32h-768c-17.666 0-32-14.334-32-32s14.334-32 32-32zM896 257.998h-768c-17.666 0-32-14.334-32-32s14.334-32 32-32h768c17.666 0 32 14.334 32 32s-14.334 32-32 32zM896 129.998h-768c-17.666 0-32-14.334-32-32s14.334-32 32-32h768c17.666 0 32 14.334 32 32s-14.334 32-32 32zM410.084 450c-0.666 0.666-1.502 1.084-2.166 1.75-74.876 74.876-74.876 196.668 0 271.584 5.124 5.084 10.54 9.916 16.292 14.416-4.502-71.916 21.458-142.75 74.208-195.458 52.748-52.792 123.58-78.666 195.498-74.166-5.334-6.792-11.748-12.25-17.792-18.124h83.042c10.084 16.084 18.5 33.5 25.166 52.126 4.042 11.708 1.084 24.666-7.666 33.334-8.582 8.708-21.584 11.708-33.248 7.582-70.752-24.998-147.292-7.958-199.75 44.5-52.502 52.5-69.584 129.042-44.502 199.792 4.166 11.624 1.166 24.542-7.582 33.292-8.668 8.708-21.626 11.666-33.25 7.542-37.042-13.084-69.25-33.208-95.666-59.584-86.418-86.42-97.71-219.544-34.544-318.586h81.96z" />
<glyph unicode="&#xe677;" glyph-name="weather3" d="M67.208 448c-2.084 10.334-3.208 21.042-3.208 32 0 88.376 71.624 160 160 160 21.624 0 42.124-4.416 60.876-12.166 42.458 82.832 127.706 140.166 227.124 140.166s184.668-57.334 227.082-140.166c18.794 7.75 39.336 12.166 60.918 12.166 88.376 0 160-71.624 160-160 0-10.958-1.124-21.666-3.25-32h64c1.584 10.542 3.25 21.042 3.25 32 0 123.5-100.5 224-224 224-10.624 0-21.124-0.75-31.584-2.25-59.748 81.416-154.040 130.25-256.416 130.25s-196.624-48.834-256.416-130.25c-10.46 1.5-20.96 2.25-31.584 2.25-123.5 0-224-100.5-224-224 0-10.958 1.708-21.458 3.25-32h63.958zM992 384h-960c-17.666 0-32-14.334-32-32s14.334-32 32-32h960c17.666 0 32 14.334 32 32s-14.334 32-32 32zM992 256h-960c-17.666 0-32-14.334-32-32s14.334-32 32-32h960c17.666 0 32 14.334 32 32s-14.334 32-32 32zM992 128h-960c-17.666 0-32-14.334-32-32s14.334-32 32-32h960c17.666 0 32 14.334 32 32s-14.334 32-32 32z" />
<glyph unicode="&#xe678;" glyph-name="lines" d="M224 640h576c17.666 0 32 14.334 32 32s-14.334 32-32 32h-576c-17.666 0-32-14.334-32-32s14.334-32 32-32zM800 576h-576c-17.666 0-32-14.334-32-32s14.334-32 32-32h576c17.666 0 32 14.334 32 32s-14.334 32-32 32zM800 448h-576c-17.666 0-32-14.334-32-32s14.334-32 32-32h576c17.666 0 32 14.334 32 32s-14.334 32-32 32zM800 320h-576c-17.666 0-32-14.334-32-32s14.334-32 32-32h576c17.666 0 32 14.334 32 32s-14.334 32-32 32z" />
<glyph unicode="&#xe679;" glyph-name="cloud3" d="M800 640c-10.624 0-21.124-0.75-31.584-2.25-59.748 81.416-154.040 130.25-256.416 130.25s-196.624-48.834-256.416-130.25c-10.46 1.5-20.96 2.25-31.584 2.25-123.5 0-224-100.5-224-224s100.5-224 224-224c27.376 0 54.168 5 79.418 14.666 57.914-50.5 131.582-78.666 208.582-78.666 77.084 0 150.666 28.166 208.582 78.666 25.25-9.666 52.042-14.666 79.418-14.666 123.5 0 224 100.5 224 224s-100.5 224-224 224zM800 256c-34.25 0-65.832 11-91.876 29.334-46.956-56.582-116.876-93.334-196.124-93.334-79.25 0-149.168 36.752-196.124 93.334-26-18.334-57.626-29.334-91.876-29.334-88.376 0-160 71.624-160 160s71.624 160 160 160c21.624 0 42.124-4.416 60.876-12.166 42.458 82.832 127.706 140.166 227.124 140.166s184.668-57.334 227.082-140.166c18.794 7.75 39.336 12.166 60.918 12.166 88.376 0 160-71.624 160-160s-71.624-160-160-160z" />
<glyph unicode="&#xe67a;" glyph-name="lightning" d="M800 832c-10.624 0-21.124-0.75-31.584-2.25-59.748 81.416-154.040 130.25-256.416 130.25s-196.624-48.834-256.416-130.25c-10.46 1.5-20.96 2.25-31.584 2.25-123.5 0-224-100.5-224-224s100.5-224 224-224c27.376 0 54.168 5 79.418 14.666 43.082-37.542 94.832-62.582 150.208-73.042l-69.626-69.624 64-64-64-192 192 192-64 64 22 65.998c68.916 4.876 134.25 31.086 186.582 76.668 25.25-9.666 52.042-14.666 79.418-14.666 123.5 0 224 100.5 224 224s-100.5 224-224 224zM800 448c-34.25 0-65.832 11-91.876 29.334-37.876-45.666-91.124-77.25-151.75-88.208l-44.374-5.126c-79.25 0-149.168 36.75-196.124 93.334-26-18.334-57.626-29.334-91.876-29.334-88.376 0-160 71.624-160 160s71.624 160 160 160c21.624 0 42.124-4.416 60.876-12.166 42.458 82.832 127.706 140.166 227.124 140.166s184.668-57.334 227.082-140.166c18.794 7.75 39.336 12.166 60.918 12.166 88.376 0 160-71.624 160-160s-71.624-160-160-160z" />
<glyph unicode="&#xe67b;" glyph-name="lightning2" d="M800 832c-10.624 0-21.124-0.75-31.584-2.25-59.748 81.416-154.040 130.25-256.416 130.25s-196.624-48.834-256.416-130.25c-10.46 1.5-20.96 2.25-31.584 2.25-123.5 0-224-100.5-224-224s100.5-224 224-224c27.376 0 54.168 5 79.418 14.666 24.582-21.416 52.5-37.916 81.832-50.832l49.832 49.748c-46.916 15.252-88.332 42.542-119.208 79.752-25.998-18.334-57.624-29.334-91.874-29.334-88.376 0-160 71.624-160 160s71.624 160 160 160c21.624 0 42.124-4.416 60.876-12.166 42.458 82.832 127.706 140.166 227.124 140.166s184.668-57.334 227.082-140.166c18.794 7.75 39.336 12.166 60.918 12.166 88.376 0 160-71.624 160-160s-71.624-160-160-160c-34.25 0-65.832 11-91.876 29.334-20.75-25.042-46.624-45.334-75.25-61.168l-26.874-80.666c41.75 13.124 81 33.876 114.582 63.166 25.25-9.666 52.042-14.666 79.418-14.666 123.5 0 224 100.5 224 224s-100.5 224-224 224zM384 256l64-64-64-192 192 192-64 64 64 192-192-192z" />
</font>
</defs>
</svg>
